  0
SECTION
  2
HEADER
  9
$ACADVER
  1
AC1027
  9
$ACADMAINTVER
 70
   105
  9
$DWGCODEPAGE
  3
ANSI_1252
  9
$REQUIREDVERSIONS
160
                 0
  9
$INSBASE
 10
0.0
 20
0.0
 30
0.0
  9
$EXTMIN
 10
1.000000000000000E+20
 20
1.000000000000000E+20
 30
1.000000000000000E+20
  9
$EXTMAX
 10
-1.000000000000000E+20
 20
-1.000000000000000E+20
 30
-1.000000000000000E+20
  9
$LIMMIN
 10
0.0
 20
0.0
  9
$LIMMAX
 10
420.0
 20
297.0
  9
$ORTHOMODE
 70
     0
  9
$REGENMODE
 70
     1
  9
$FILLMODE
 70
     1
  9
$QTEXTMODE
 70
     0
  9
$MIRRTEXT
 70
     1
  9
$LTSCALE
 40
1.0
  9
$ATTMODE
 70
     1
  9
$TEXTSIZE
 40
2.5
  9
$TRACEWID
 40
1.0
  9
$TEXTSTYLE
  7
Standard
  9
$CLAYER
  8
0
  9
$CELTYPE
  6
ByLayer
  9
$CECOLOR
 62
   256
  9
$CELTSCALE
 40
1.0
  9
$DISPSILH
 70
     0
  9
$DIMSCALE
 40
1.0
  9
$DIMASZ
 40
2.5
  9
$DIMEXO
 40
0.625
  9
$DIMDLI
 40
3.75
  9
$DIMRND
 40
0.0
  9
$DIMDLE
 40
0.0
  9
$DIMEXE
 40
1.25
  9
$DIMTP
 40
0.0
  9
$DIMTM
 40
0.0
  9
$DIMTXT
 40
2.5
  9
$DIMCEN
 40
2.5
  9
$DIMTSZ
 40
0.0
  9
$DIMTOL
 70
     0
  9
$DIMLIM
 70
     0
  9
$DIMTIH
 70
     0
  9
$DIMTOH
 70
     0
  9
$DIMSE1
 70
     0
  9
$DIMSE2
 70
     0
  9
$DIMTAD
 70
     1
  9
$DIMZIN
 70
     8
  9
$DIMBLK
  1

  9
$DIMASO
 70
     1
  9
$DIMSHO
 70
     1
  9
$DIMPOST
  1

  9
$DIMAPOST
  1

  9
$DIMALT
 70
     0
  9
$DIMALTD
 70
     3
  9
$DIMALTF
 40
0.03937007874016
  9
$DIMLFAC
 40
1.0
  9
$DIMTOFL
 70
     1
  9
$DIMTVP
 40
0.0
  9
$DIMTIX
 70
     0
  9
$DIMSOXD
 70
     0
  9
$DIMSAH
 70
     0
  9
$DIMBLK1
  1

  9
$DIMBLK2
  1

  9
$DIMSTYLE
  2
ISO-25
  9
$DIMCLRD
 70
     0
  9
$DIMCLRE
 70
     0
  9
$DIMCLRT
 70
     0
  9
$DIMTFAC
 40
1.0
  9
$DIMGAP
 40
0.625
  9
$DIMJUST
 70
     0
  9
$DIMSD1
 70
     0
  9
$DIMSD2
 70
     0
  9
$DIMTOLJ
 70
     0
  9
$DIMTZIN
 70
     8
  9
$DIMALTZ
 70
     0
  9
$DIMALTTZ
 70
     0
  9
$DIMUPT
 70
     0
  9
$DIMDEC
 70
     2
  9
$DIMTDEC
 70
     2
  9
$DIMALTU
 70
     2
  9
$DIMALTTD
 70
     3
  9
$DIMTXSTY
  7
Standard
  9
$DIMAUNIT
 70
     0
  9
$DIMADEC
 70
     0
  9
$DIMALTRND
 40
0.0
  9
$DIMAZIN
 70
     0
  9
$DIMDSEP
 70
    44
  9
$DIMATFIT
 70
     3
  9
$DIMFRAC
 70
     0
  9
$DIMLDRBLK
  1

  9
$DIMLUNIT
 70
     2
  9
$DIMLWD
 70
    -2
  9
$DIMLWE
 70
    -2
  9
$DIMTMOVE
 70
     0
  9
$DIMFXL
 40
1.0
  9
$DIMFXLON
 70
     0
  9
$DIMJOGANG
 40
0.7853981633974483
  9
$DIMTFILL
 70
     0
  9
$DIMTFILLCLR
 70
     0
  9
$DIMARCSYM
 70
     0
  9
$DIMLTYPE
  6

  9
$DIMLTEX1
  6

  9
$DIMLTEX2
  6

  9
$DIMTXTDIRECTION
 70
     0
  9
$LUNITS
 70
     2
  9
$LUPREC
 70
     4
  9
$SKETCHINC
 40
1.0
  9
$FILLETRAD
 40
10.0
  9
$AUNITS
 70
     0
  9
$AUPREC
 70
     0
  9
$MENU
  1
.
  9
$ELEVATION
 40
0.0
  9
$PELEVATION
 40
0.0
  9
$THICKNESS
 40
0.0
  9
$LIMCHECK
 70
     0
  9
$CHAMFERA
 40
0.0
  9
$CHAMFERB
 40
0.0
  9
$CHAMFERC
 40
0.0
  9
$CHAMFERD
 40
0.0
  9
$SKPOLY
 70
     0
  9
$TDCREATE
 40
2459684.36257603
  9
$TDUCREATE
 40
2459684.279242697
  9
$TDUPDATE
 40
2459684.362576065
  9
$TDUUPDATE
 40
2459684.279242732
  9
$TDINDWG
 40
0.0000000116
  9
$TDUSRTIMER
 40
0.0000000116
  9
$USRTIMER
 70
     1
  9
$ANGBASE
 50
0.0
  9
$ANGDIR
 70
     0
  9
$PDMODE
 70
     0
  9
$PDSIZE
 40
0.0
  9
$PLINEWID
 40
0.0
  9
$SPLFRAME
 70
     0
  9
$SPLINETYPE
 70
     6
  9
$SPLINESEGS
 70
     8
  9
$HANDSEED
  5
C0
  9
$SURFTAB1
 70
     6
  9
$SURFTAB2
 70
     6
  9
$SURFTYPE
 70
     6
  9
$SURFU
 70
     6
  9
$SURFV
 70
     6
  9
$UCSBASE
  2

  9
$UCSNAME
  2

  9
$UCSORG
 10
0.0
 20
0.0
 30
0.0
  9
$UCSXDIR
 10
1.0
 20
0.0
 30
0.0
  9
$UCSYDIR
 10
0.0
 20
1.0
 30
0.0
  9
$UCSORTHOREF
  2

  9
$UCSORTHOVIEW
 70
     0
  9
$UCSORGTOP
 10
0.0
 20
0.0
 30
0.0
  9
$UCSORGBOTTOM
 10
0.0
 20
0.0
 30
0.0
  9
$UCSORGLEFT
 10
0.0
 20
0.0
 30
0.0
  9
$UCSORGRIGHT
 10
0.0
 20
0.0
 30
0.0
  9
$UCSORGFRONT
 10
0.0
 20
0.0
 30
0.0
  9
$UCSORGBACK
 10
0.0
 20
0.0
 30
0.0
  9
$PUCSBASE
  2

  9
$PUCSNAME
  2

  9
$PUCSORG
 10
0.0
 20
0.0
 30
0.0
  9
$PUCSXDIR
 10
1.0
 20
0.0
 30
0.0
  9
$PUCSYDIR
 10
0.0
 20
1.0
 30
0.0
  9
$PUCSORTHOREF
  2

  9
$PUCSORTHOVIEW
 70
     0
  9
$PUCSORGTOP
 10
0.0
 20
0.0
 30
0.0
  9
$PUCSORGBOTTOM
 10
0.0
 20
0.0
 30
0.0
  9
$PUCSORGLEFT
 10
0.0
 20
0.0
 30
0.0
  9
$PUCSORGRIGHT
 10
0.0
 20
0.0
 30
0.0
  9
$PUCSORGFRONT
 10
0.0
 20
0.0
 30
0.0
  9
$PUCSORGBACK
 10
0.0
 20
0.0
 30
0.0
  9
$USERI1
 70
     0
  9
$USERI2
 70
     0
  9
$USERI3
 70
     0
  9
$USERI4
 70
     0
  9
$USERI5
 70
     0
  9
$USERR1
 40
0.0
  9
$USERR2
 40
0.0
  9
$USERR3
 40
0.0
  9
$USERR4
 40
0.0
  9
$USERR5
 40
0.0
  9
$WORLDVIEW
 70
     1
  9
$SHADEDGE
 70
     3
  9
$SHADEDIF
 70
    70
  9
$TILEMODE
 70
     1
  9
$MAXACTVP
 70
    64
  9
$PINSBASE
 10
0.0
 20
0.0
 30
0.0
  9
$PLIMCHECK
 70
     0
  9
$PEXTMIN
 10
1.000000000000000E+20
 20
1.000000000000000E+20
 30
1.000000000000000E+20
  9
$PEXTMAX
 10
-1.000000000000000E+20
 20
-1.000000000000000E+20
 30
-1.000000000000000E+20
  9
$PLIMMIN
 10
0.0
 20
0.0
  9
$PLIMMAX
 10
420.0
 20
297.0
  9
$UNITMODE
 70
     0
  9
$VISRETAIN
 70
     1
  9
$PLINEGEN
 70
     0
  9
$PSLTSCALE
 70
     1
  9
$TREEDEPTH
 70
  3020
  9
$CMLSTYLE
  2
Standard
  9
$CMLJUST
 70
     0
  9
$CMLSCALE
 40
20.0
  9
$PROXYGRAPHICS
 70
     1
  9
$MEASUREMENT
 70
     1
  9
$CELWEIGHT
370
    -1
  9
$ENDCAPS
280
     0
  9
$JOINSTYLE
280
     0
  9
$LWDISPLAY
290
     0
  9
$INSUNITS
 70
     4
  9
$HYPERLINKBASE
  1

  9
$STYLESHEET
  1

  9
$XEDIT
290
     1
  9
$CEPSNTYPE
380
     0
  9
$PSTYLEMODE
290
     1
  9
$FINGERPRINTGUID
  2
{f1e7b0b6-b71e-47b7-bff2-994281c015d7}
  9
$VERSIONGUID
  2
{FAEB1C32-E019-11D5-929B-00C0DF256EC4}
  9
$EXTNAMES
290
     1
  9
$PSVPSCALE
 40
0.0
  9
$OLESTARTUP
290
     0
  9
$SORTENTS
280
   127
  9
$INDEXCTL
280
     0
  9
$HIDETEXT
280
     1
  9
$XCLIPFRAME
280
     2
  9
$HALOGAP
280
     0
  9
$OBSCOLOR
 70
   257
  9
$OBSLTYPE
280
     0
  9
$INTERSECTIONDISPLAY
280
     0
  9
$INTERSECTIONCOLOR
 70
   257
  9
$DIMASSOC
280
     2
  9
$PROJECTNAME
  1

  9
$CAMERADISPLAY
290
     0
  9
$LENSLENGTH
 40
50.0
  9
$CAMERAHEIGHT
 40
0.0
  9
$STEPSPERSEC
 40
2.0
  9
$STEPSIZE
 40
6.0
  9
$3DDWFPREC
 40
2.0
  9
$PSOLWIDTH
 40
5.0
  9
$PSOLHEIGHT
 40
80.0
  9
$LOFTANG1
 40
1.570796326794897
  9
$LOFTANG2
 40
1.570796326794897
  9
$LOFTMAG1
 40
0.0
  9
$LOFTMAG2
 40
0.0
  9
$LOFTPARAM
 70
     7
  9
$LOFTNORMALS
280
     1
  9
$LATITUDE
 40
37.795
  9
$LONGITUDE
 40
-122.394
  9
$NORTHDIRECTION
 40
0.0
  9
$TIMEZONE
 70
 -8000
  9
$LIGHTGLYPHDISPLAY
280
     1
  9
$TILEMODELIGHTSYNCH
280
     1
  9
$CMATERIAL
347
44
  9
$SOLIDHIST
280
     0
  9
$SHOWHIST
280
     1
  9
$DWFFRAME
280
     2
  9
$DGNFRAME
280
     2
  9
$REALWORLDSCALE
290
     1
  9
$INTERFERECOLOR
 62
   256
  9
$CSHADOW
280
     0
  9
$SHADOWPLANELOCATION
 40
0.0
  0
ENDSEC
  0
SECTION
  2
CLASSES
  0
CLASS
  1
ACDBDICTIONARYWDFLT
  2
AcDbDictionaryWithDefault
  3
ObjectDBX Classes
 90
        0
 91
        3
280
     0
281
     0
  0
CLASS
  1
VISUALSTYLE
  2
AcDbVisualStyle
  3
ObjectDBX Classes
 90
     4095
 91
        3
280
     0
281
     0
  0
CLASS
  1
MATERIAL
  2
AcDbMaterial
  3
ObjectDBX Classes
 90
     1153
 91
        3
280
     0
281
     0
  0
CLASS
  1
SCALE
  2
AcDbScale
  3
ObjectDBX Classes
 90
     1153
 91
        3
280
     0
281
     0
  0
CLASS
  1
TABLESTYLE
  2
AcDbTableStyle
  3
ObjectDBX Classes
 90
     4095
 91
        3
280
     0
281
     0
  0
CLASS
  1
MLEADERSTYLE
  2
AcDbMLeaderStyle
  3
ACDB_MLEADERSTYLE_CLASS
 90
     4095
 91
        3
280
     0
281
     0
  0
CLASS
  1
SUN
  2
AcDbSun
  3
SCENEOE
 90
     1153
 91
        3
280
     0
281
     0
  0
CLASS
  1
DICTIONARYVAR
  2
AcDbDictionaryVar
  3
ObjectDBX Classes
 90
        0
 91
        3
280
     0
281
     0
  0
CLASS
  1
CELLSTYLEMAP
  2
AcDbCellStyleMap
  3
ObjectDBX Classes
 90
     1152
 91
        3
280
     0
281
     0
  0
ENDSEC
  0
SECTION
  2
TABLES
  0
TABLE
  2
VPORT
  5
8
330
0
100
AcDbSymbolTable
 70
     1
  0
VPORT
  5
29
330
8
100
AcDbSymbolTableRecord
100
AcDbViewportTableRecord
  2
*Active
 70
     0
 10
0.0
 20
0.0
 11
1.0
 21
1.0
 12
0.0
 22
0.0
 13
0.0
 23
0.0
 14
10.0
 24
10.0
 15
10.0
 25
10.0
 16
0.0
 26
0.0
 36
1.0
 17
1370.073085805968
 27
1805.504825967083
 37
0.0
 40
72.46013453087426
 41
5.305724074093767
 42
50.0
 43
0.0
 44
0.0
 50
0.0
 51
0.0
 71
     0
 72
   100
 73
     1
 74
     3
 75
     0
 76
     0
 77
     0
 78
     0
281
     0
 65
     1
110
0.0
120
0.0
130
0.0
111
1.0
121
0.0
131
0.0
112
0.0
122
1.0
132
0.0
 79
     0
146
0.0
348
2F
 60
     3
 61
     5
292
     1
282
     1
141
0.0
142
0.0
 63
   250
361
6D
  0
ENDTAB
  0
TABLE
  2
LTYPE
  5
5
330
0
100
AcDbSymbolTable
 70
     4
  0
LTYPE
  5
14
330
5
100
AcDbSymbolTableRecord
100
AcDbLinetypeTableRecord
  2
ByBlock
 70
     0
  3

 72
    65
 73
     0
 40
0.0
  0
LTYPE
  5
15
330
5
100
AcDbSymbolTableRecord
100
AcDbLinetypeTableRecord
  2
ByLayer
 70
     0
  3

 72
    65
 73
     0
 40
0.0
  0
LTYPE
  5
16
330
5
100
AcDbSymbolTableRecord
100
AcDbLinetypeTableRecord
  2
Continuous
 70
     0
  3
Solid line
 72
    65
 73
     0
 40
0.0
  0
LTYPE
  5
6E
330
5
100
AcDbSymbolTableRecord
100
AcDbLinetypeTableRecord
  2
Gestrichelt
 70
     0
  3

 72
    83
 73
     3
 40
10.0
 49
2.5
 74
     0
 49
-5.0
 74
     0
 49
2.5
 74
     0
  0
LTYPE
  5
6F
330
5
100
AcDbSymbolTableRecord
100
AcDbLinetypeTableRecord
  2
PHL_THICK
 70
     0
  3

 72
    83
 73
     0
 40
0.0
  0
LTYPE
  5
70
330
5
100
AcDbSymbolTableRecord
100
AcDbLinetypeTableRecord
  2
StrichPunkt
 70
     0
  3

 72
    83
 73
     5
 40
15.0
 49
5.0
 74
     0
 49
-2.5
 74
     0
 49
0.0
 74
     0
 49
-2.5
 74
     0
 49
5.0
 74
     0
  0
ENDTAB
  0
TABLE
  2
LAYER
  5
2
330
0
100
AcDbSymbolTable
 70
     6
  0
LAYER
  5
10
330
2
100
AcDbSymbolTableRecord
100
AcDbLayerTableRecord
  2
0
 70
     0
 62
     7
  6
Continuous
370
    -3
390
F
347
46
348
0
  0
LAYER
  5
72
330
2
100
AcDbSymbolTableRecord
100
AcDbLayerTableRecord
  2
FEIN
 70
     0
 62
     7
  6
Continuous
370
    -3
390
F
347
46
348
0
  0
LAYER
  5
73
330
2
100
AcDbSymbolTableRecord
100
AcDbLayerTableRecord
  2
Maße
 70
     0
 62
     7
  6
Continuous
370
    -3
390
F
347
46
348
0
  0
LAYER
  5
74
330
2
100
AcDbSymbolTableRecord
100
AcDbLayerTableRecord
  2
Hilfslinie
 70
     0
 62
     1
420
 16711680
  6
Continuous
370
    -3
390
F
347
46
348
0
  0
LAYER
  5
75
330
2
100
AcDbSymbolTableRecord
100
AcDbLayerTableRecord
  2
Schrift
 70
     0
 62
     7
  6
Continuous
370
    -3
390
F
347
46
348
0
  0
LAYER
  5
7B
330
2
100
AcDbSymbolTableRecord
100
AcDbLayerTableRecord
  2
Defpoints
 70
     0
 62
     7
  6
Continuous
290
     0
370
    -3
390
F
347
46
348
0
  0
ENDTAB
  0
TABLE
  2
STYLE
  5
3
330
0
100
AcDbSymbolTable
 70
     3
  0
STYLE
  5
11
330
3
100
AcDbSymbolTableRecord
100
AcDbTextStyleTableRecord
  2
Standard
 70
     0
 40
10.0
 41
1.0
 50
0.0
 71
     0
 42
2.5
  3
Simplex
  4

  0
STYLE
  5
71
330
3
100
AcDbSymbolTableRecord
100
AcDbTextStyleTableRecord
  2
Standard_Dim
 70
     0
 40
0.0
 41
1.0
 50
0.0
 71
     0
 42
2.5
  3
Simplex
  4

  0
STYLE
  5
76
330
3
100
AcDbSymbolTableRecord
100
AcDbTextStyleTableRecord
  2
Standard_Dim1
 70
     0
 40
0.0
 41
1.0
 50
0.0
 71
     0
 42
2.5
  3
Simplex
  4

  0
ENDTAB
  0
TABLE
  2
VIEW
  5
6
330
0
100
AcDbSymbolTable
 70
     0
  0
ENDTAB
  0
TABLE
  2
UCS
  5
7
330
0
100
AcDbSymbolTable
 70
     0
  0
ENDTAB
  0
TABLE
  2
APPID
  5
9
330
0
100
AcDbSymbolTable
 70
     1
  0
APPID
  5
12
330
9
100
AcDbSymbolTableRecord
100
AcDbRegAppTableRecord
  2
ACAD
 70
     0
  0
ENDTAB
  0
TABLE
  2
DIMSTYLE
  5
A
330
0
100
AcDbSymbolTable
 70
     4
100
AcDbDimStyleTable
  0
DIMSTYLE
105
27
330
A
100
AcDbSymbolTableRecord
100
AcDbDimStyleTableRecord
  2
ISO-25
 70
     0
 41
2.5
 42
0.625
 43
3.75
 44
1.25
 73
     0
 74
     0
 77
     1
 78
     8
140
2.5
141
2.5
143
0.03937007874016
147
0.625
171
     3
172
     1
178
     0
271
     2
272
     2
274
     3
278
    44
283
     0
284
     8
340
11
  0
DIMSTYLE
105
77
102
{ACAD_REACTORS
330
7A
330
89
330
97
102
}
330
A
100
AcDbSymbolTableRecord
100
AcDbDimStyleTableRecord
  2
Standard
 70
     0
 41
2.0
 42
3.0
 44
0.0
 73
     0
 74
     0
 78
    12
140
3.0
147
0.45
176
     7
177
     7
271
     2
178
     7
179
     2
271
     2
272
     2
340
76
  0
DIMSTYLE
105
78
330
A
100
AcDbSymbolTableRecord
100
AcDbDimStyleTableRecord
  2
GROß
 70
     0
 41
8.0
 42
3.0
 44
0.0
 73
     0
 74
     0
 78
    12
140
6.0
147
0.8999999999999999
176
     7
177
     7
271
     1
178
     7
179
     2
271
     1
272
     1
274
     1
340
71
  0
DIMSTYLE
105
79
330
A
100
AcDbSymbolTableRecord
100
AcDbDimStyleTableRecord
  2
klein
 70
     0
 41
2.0
 42
3.0
 44
0.0
 73
     0
 74
     0
 77
     2
 78
    12
140
3.0
147
0.45
176
     7
177
     7
271
     2
178
     7
179
     2
271
     2
272
     2
340
76
  0
ENDTAB
  0
TABLE
  2
BLOCK_RECORD
  5
1
330
0
100
AcDbSymbolTable
 70
     5
  0
BLOCK_RECORD
  5
1F
330
1
100
AcDbSymbolTableRecord
100
AcDbBlockTableRecord
  2
*Model_Space
340
22
 70
     0
280
     1
281
     0
  0
BLOCK_RECORD
  5
1B
330
1
100
AcDbSymbolTableRecord
100
AcDbBlockTableRecord
  2
*Paper_Space
340
1E
 70
     0
280
     1
281
     0
  0
BLOCK_RECORD
  5
23
330
1
100
AcDbSymbolTableRecord
100
AcDbBlockTableRecord
  2
*Paper_Space0
340
26
 70
     0
280
     1
281
     0
  0
BLOCK_RECORD
  5
7C
330
1
100
AcDbSymbolTableRecord
100
AcDbBlockTableRecord
  2
*D1
340
0
 70
     0
280
     1
281
     0
  0
BLOCK_RECORD
  5
8A
330
1
100
AcDbSymbolTableRecord
100
AcDbBlockTableRecord
  2
*D2
340
0
 70
     0
280
     1
281
     0
  0
BLOCK_RECORD
  5
98
330
1
100
AcDbSymbolTableRecord
100
AcDbBlockTableRecord
  2
*D3
340
0
 70
     0
280
     1
281
     0
  0
BLOCK_RECORD
  5
A6
330
1
100
AcDbSymbolTableRecord
100
AcDbBlockTableRecord
  2
*U4
340
0
102
{BLKREFS
331
B4
102
}
 70
     0
280
     1
281
     0
  0
ENDTAB
  0
ENDSEC
  0
SECTION
  2
BLOCKS
  0
BLOCK
  5
20
330
1F
100
AcDbEntity
  8
0
100
AcDbBlockBegin
  2
*Model_Space
 70
     0
 10
0.0
 20
0.0
 30
0.0
  3
*Model_Space
  1

  0
ENDBLK
  5
21
330
1F
100
AcDbEntity
  8
0
100
AcDbBlockEnd
  0
BLOCK
  5
1C
330
1B
100
AcDbEntity
 67
     1
  8
0
100
AcDbBlockBegin
  2
*Paper_Space
 70
     0
 10
0.0
 20
0.0
 30
0.0
  3
*Paper_Space
  1

  0
ENDBLK
  5
1D
330
1B
100
AcDbEntity
 67
     1
  8
0
100
AcDbBlockEnd
  0
BLOCK
  5
24
330
23
100
AcDbEntity
  8
0
100
AcDbBlockBegin
  2
*Paper_Space0
 70
     0
 10
0.0
 20
0.0
 30
0.0
  3
*Paper_Space0
  1

  0
ENDBLK
  5
25
330
23
100
AcDbEntity
  8
0
100
AcDbBlockEnd
  0
BLOCK
  5
7D
330
7C
100
AcDbEntity
  8
0
100
AcDbBlockBegin
  2
*D1
 70
     1
 10
0.0
 20
0.0
 30
0.0
  3
*D1
  1

  0
LINE
  5
7F
330
7C
100
AcDbEntity
  8
Maße
 62
     7
370
    -2
100
AcDbLine
 10
1437.737616244315
 20
1840.0
 30
0.0
 11
1441.737616244315
 21
1840.0
 31
0.0
  0
LINE
  5
80
330
7C
100
AcDbEntity
  8
Maße
 62
     7
370
    -2
100
AcDbLine
 10
1437.737616244315
 20
1780.0
 30
0.0
 11
1441.737616244315
 21
1780.0
 31
0.0
  0
LINE
  5
81
330
7C
100
AcDbEntity
  8
Maße
 62
     7
370
    -2
100
AcDbLine
 10
1441.737616244315
 20
1838.0
 30
0.0
 11
1441.737616244315
 21
1812.807142857143
 31
0.0
  0
LINE
  5
82
330
7C
100
AcDbEntity
  8
Maße
 62
     7
370
    -2
100
AcDbLine
 10
1441.737616244315
 20
1782.0
 30
0.0
 11
1441.737616244315
 21
1807.192857142857
 31
0.0
  0
SOLID
  5
83
330
7C
100
AcDbEntity
  8
Maße
 62
     7
100
AcDbTrace
 10
1442.070949577648
 20
1838.0
 30
0.0
 11
1441.404282910981
 21
1838.0
 31
0.0
 12
1441.737616244315
 22
1840.0
 32
0.0
 13
1441.737616244315
 23
1840.0
 33
0.0
  0
SOLID
  5
84
330
7C
100
AcDbEntity
  8
Maße
 62
     7
100
AcDbTrace
 10
1441.404282910981
 20
1782.0
 30
0.0
 11
1442.070949577648
 21
1782.0
 31
0.0
 12
1441.737616244315
 22
1780.0
 32
0.0
 13
1441.737616244315
 23
1780.0
 33
0.0
  0
MTEXT
  5
85
330
7C
100
AcDbEntity
  8
Maße
 62
     7
100
AcDbMText
 10
1441.737616244315
 20
1810.0
 30
0.0
 40
3.0
 41
0.0
 46
0.0
 71
     5
 72
     1
  1
\A1;60
  7
Standard_Dim1
 11
0.0
 21
1.0
 31
0.0
 73
     1
 44
1.0
  0
POINT
  5
86
330
7C
100
AcDbEntity
  8
Defpoints
 62
     0
100
AcDbPoint
 10
1434.737616244315
 20
1840.0
 30
0.0
  0
POINT
  5
87
330
7C
100
AcDbEntity
  8
Defpoints
 62
     0
100
AcDbPoint
 10
1434.737616244315
 20
1780.0
 30
0.0
  0
POINT
  5
88
330
7C
100
AcDbEntity
  8
Defpoints
 62
     0
100
AcDbPoint
 10
1441.737616244315
 20
1780.0
 30
0.0
  0
ENDBLK
  5
7E
330
7C
100
AcDbEntity
  8
0
100
AcDbBlockEnd
  0
BLOCK
  5
8B
330
8A
100
AcDbEntity
  8
0
100
AcDbBlockBegin
  2
*D2
 70
     1
 10
0.0
 20
0.0
 30
0.0
  3
*D2
  1

  0
LINE
  5
8D
330
8A
100
AcDbEntity
  8
Maße
 62
     7
370
    -2
100
AcDbLine
 10
1370.737616244315
 20
1777.0
 30
0.0
 11
1370.737616244315
 21
1773.0
 31
0.0
  0
LINE
  5
8E
330
8A
100
AcDbEntity
  8
Maße
 62
     7
370
    -2
100
AcDbLine
 10
1388.737616244315
 20
1777.0
 30
0.0
 11
1388.737616244315
 21
1773.0
 31
0.0
  0
LINE
  5
8F
330
8A
100
AcDbEntity
  8
Maße
 62
     7
370
    -2
100
AcDbLine
 10
1372.737616244315
 20
1773.0
 30
0.0
 11
1377.073330530029
 21
1773.0
 31
0.0
  0
LINE
  5
90
330
8A
100
AcDbEntity
  8
Maße
 62
     7
370
    -2
100
AcDbLine
 10
1386.737616244315
 20
1773.0
 30
0.0
 11
1382.401901958601
 21
1773.0
 31
0.0
  0
SOLID
  5
91
330
8A
100
AcDbEntity
  8
Maße
 62
     7
100
AcDbTrace
 10
1372.737616244315
 20
1773.333333333333
 30
0.0
 11
1372.737616244315
 21
1772.666666666667
 31
0.0
 12
1370.737616244315
 22
1773.0
 32
0.0
 13
1370.737616244315
 23
1773.0
 33
0.0
  0
SOLID
  5
92
330
8A
100
AcDbEntity
  8
Maße
 62
     7
100
AcDbTrace
 10
1386.737616244315
 20
1772.666666666667
 30
0.0
 11
1386.737616244315
 21
1773.333333333333
 31
0.0
 12
1388.737616244315
 22
1773.0
 32
0.0
 13
1388.737616244315
 23
1773.0
 33
0.0
  0
MTEXT
  5
93
330
8A
100
AcDbEntity
  8
Maße
 62
     7
100
AcDbMText
 10
1379.737616244315
 20
1773.0
 30
0.0
 40
3.0
 41
0.0
 46
0.0
 71
     5
 72
     1
  1
\A1;18
  7
Standard_Dim1
 73
     1
 44
1.0
  0
POINT
  5
94
330
8A
100
AcDbEntity
  8
Defpoints
 62
     0
100
AcDbPoint
 10
1370.737616244315
 20
1780.0
 30
0.0
  0
POINT
  5
95
330
8A
100
AcDbEntity
  8
Defpoints
 62
     0
100
AcDbPoint
 10
1388.737616244315
 20
1780.0
 30
0.0
  0
POINT
  5
96
330
8A
100
AcDbEntity
  8
Defpoints
 62
     0
100
AcDbPoint
 10
1388.737616244315
 20
1773.0
 30
0.0
  0
ENDBLK
  5
8C
330
8A
100
AcDbEntity
  8
0
100
AcDbBlockEnd
  0
BLOCK
  5
99
330
98
100
AcDbEntity
  8
0
100
AcDbBlockBegin
  2
*D3
 70
     1
 10
0.0
 20
0.0
 30
0.0
  3
*D3
  1

  0
LINE
  5
9B
330
98
100
AcDbEntity
  8
Maße
 62
     7
370
    -2
100
AcDbLine
 10
1388.737616244315
 20
1777.0
 30
0.0
 11
1388.737616244315
 21
1773.0
 31
0.0
  0
LINE
  5
9C
330
98
100
AcDbEntity
  8
Maße
 62
     7
370
    -2
100
AcDbLine
 10
1434.737616244315
 20
1777.0
 30
0.0
 11
1434.737616244315
 21
1773.0
 31
0.0
  0
LINE
  5
9D
330
98
100
AcDbEntity
  8
Maße
 62
     7
370
    -2
100
AcDbLine
 10
1390.737616244315
 20
1773.0
 30
0.0
 11
1408.859044815743
 21
1773.0
 31
0.0
  0
LINE
  5
9E
330
98
100
AcDbEntity
  8
Maße
 62
     7
370
    -2
100
AcDbLine
 10
1432.737616244315
 20
1773.0
 30
0.0
 11
1414.616187672886
 21
1773.0
 31
0.0
  0
SOLID
  5
9F
330
98
100
AcDbEntity
  8
Maße
 62
     7
100
AcDbTrace
 10
1390.737616244315
 20
1773.333333333333
 30
0.0
 11
1390.737616244315
 21
1772.666666666667
 31
0.0
 12
1388.737616244315
 22
1773.0
 32
0.0
 13
1388.737616244315
 23
1773.0
 33
0.0
  0
SOLID
  5
A0
330
98
100
AcDbEntity
  8
Maße
 62
     7
100
AcDbTrace
 10
1432.737616244315
 20
1772.666666666667
 30
0.0
 11
1432.737616244315
 21
1773.333333333333
 31
0.0
 12
1434.737616244315
 22
1773.0
 32
0.0
 13
1434.737616244315
 23
1773.0
 33
0.0
  0
MTEXT
  5
A1
330
98
100
AcDbEntity
  8
Maße
 62
     7
100
AcDbMText
 10
1411.737616244315
 20
1773.0
 30
0.0
 40
3.0
 41
0.0
 46
0.0
 71
     5
 72
     1
  1
\A1;46
  7
Standard_Dim1
 73
     1
 44
1.0
  0
POINT
  5
A2
330
98
100
AcDbEntity
  8
Defpoints
 62
     0
100
AcDbPoint
 10
1388.737616244315
 20
1780.0
 30
0.0
  0
POINT
  5
A3
330
98
100
AcDbEntity
  8
Defpoints
 62
     0
100
AcDbPoint
 10
1434.737616244315
 20
1780.0
 30
0.0
  0
POINT
  5
A4
330
98
100
AcDbEntity
  8
Defpoints
 62
     0
100
AcDbPoint
 10
1434.737616244315
 20
1773.0
 30
0.0
  0
ENDBLK
  5
9A
330
98
100
AcDbEntity
  8
0
100
AcDbBlockEnd
  0
BLOCK
  5
B2
330
A6
100
AcDbEntity
  8
0
100
AcDbBlockBegin
  2
*U4
 70
     1
 10
0.0
 20
0.0
 30
0.0
  3
*U4
  1

  0
HATCH
  5
A7
330
A6
100
AcDbEntity
  8
FEIN
  6
Continuous
 62
   254
420
 13421772
100
AcDbHatch
 10
0.0
 20
0.0
 30
0.0
210
0.0
220
0.0
230
1.0
  2
SOLID
 70
     1
 71
     0
 91
        2
 92
       18
 72
     1
 73
     1
 93
      103
 10
1090.5
 20
-292.1669872981079
 42
0.0
 10
1090.5
 20
-281.4
 42
-0.4142135623730742
 10
1090.7
 20
-281.1999999999999
 42
0.0
 10
1091.2
 20
-281.1999999999999
 42
0.2279028027246515
 10
1091.434306964616
 20
-281.0873505973633
 42
0.1702400275404554
 10
1091.5
 20
-280.9
 42
0.0
 10
1091.5
 20
-279.7000000000001
 42
0.414213562373095
 10
1091.0
 20
-279.2
 42
-0.4142135623730867
 10
1090.5
 20
-278.7000000000001
 42
0.0
 10
1090.5
 20
-277.3
 42
0.4142135623730673
 10
1090.2
 20
-277.0
 42
0.0
 10
1088.8
 20
-277.0
 42
0.4142135623730395
 10
1088.5
 20
-277.3
 42
0.0
 10
1088.5
 20
-336.7
 42
0.4142135623731226
 10
1088.8
 20
-337.0
 42
0.0
 10
1090.2
 20
-337.0
 42
0.414213562373095
 10
1090.5
 20
-336.7
 42
0.0
 10
1090.5
 20
-335.3
 42
-0.414213562373095
 10
1091.0
 20
-334.8
 42
0.414213562373095
 10
1091.5
 20
-334.3000000000001
 42
0.0
 10
1091.5
 20
-333.1000000000001
 42
0.4142135623731644
 10
1091.2
 20
-332.8000000000001
 42
0.0
 10
1090.7
 20
-332.8000000000001
 42
-0.414213562373095
 10
1090.5
 20
-332.6000000000001
 42
0.0
 10
1090.5
 20
-314.8330127018921
 42
-0.2679491924311226
 10
1090.75
 20
-314.4
 42
0.2679491924310841
 10
1091.0
 20
-313.9669872981078
 42
0.0
 10
1091.0
 20
-313.0
 42
-0.4142135623730909
 10
1092.0
 20
-312.0000000000001
 42
0.0
 10
1105.5
 20
-312.0000000000001
 42
-0.4142135623730867
 10
1106.5
 20
-313.0
 42
0.0
 10
1106.5
 20
-332.6000000000001
 42
-0.414213562373095
 10
1106.3
 20
-332.8000000000001
 42
0.0
 10
1105.8
 20
-332.8000000000001
 42
0.4142135623731019
 10
1105.5
 20
-333.1000000000001
 42
0.0
 10
1105.5
 20
-334.3000000000001
 42
0.414213562373095
 10
1106.0
 20
-334.8000000000001
 42
-0.4142135623731159
 10
1106.5
 20
-335.3
 42
0.0
 10
1106.5
 20
-336.7
 42
0.4142135623731226
 10
1106.8
 20
-337.0
 42
0.0
 10
1108.2
 20
-337.0
 42
0.4142135623731228
 10
1108.5
 20
-336.7
 42
0.0
 10
1108.5
 20
-287.8000000000001
 42
-0.4142135623732753
 10
1108.8
 20
-287.5
 42
0.0
 10
1115.2
 20
-287.5
 42
0.4142135623730603
 10
1115.5
 20
-287.2
 42
0.0
 10
1115.5
 20
-286.2
 42
0.4142135623730812
 10
1115.2
 20
-285.9000000000001
 42
0.0
 10
1112.3
 20
-285.8999999999999
 42
0.0
 10
1112.3
 20
-285.8279056191362
 42
0.2679491924311648
 10
1112.15
 20
-285.5680979980009
 42
0.0
 10
1111.518605760695
 20
-285.2035623639736
 42
0.8324306053760493
 10
1111.071990023403
 20
-285.7274084095225
 42
-0.5111996690700592
 10
1108.89224137931
 20
-284.8474416006669
 42
0.8857851797221997
 10
1108.89224137931
 20
-284.1525583993331
 42
-0.5111996690700487
 10
1111.071990023403
 20
-283.2725915904775
 42
0.8324306053759476
 10
1111.518605760695
 20
-283.7964376360264
 42
0.0
 10
1112.156346652053
 20
-283.4282377607282
 42
0.2679491924311655
 10
1112.3
 20
-283.179422863406
 42
0.1657019053367753
 10
1112.240218979313
 20
-283.0039885320246
 42
0.0440455152396844
 10
1111.948181818182
 20
-282.6872681681465
 42
-0.2112895013235379
 10
1111.85
 20
-282.4653010050624
 42
0.0
 10
1111.85
 20
-282.3
 42
-0.4142135623731227
 10
1112.15
 20
-282.0
 42
0.0
 10
1130.2
 20
-282.0
 42
0.0
 10
1130.5
 20
-281.6999999999999
 42
0.0
 10
1130.8
 20
-282.0
 42
0.0
 10
1149.0
 20
-282.0
 42
0.414213562373095
 10
1149.5
 20
-281.5
 42
0.0
 10
1149.5
 20
-280.5
 42
0.414213562373095
 10
1149.0
 20
-280.0
 42
0.0
 10
1126.3
 20
-280.0
 42
0.4142135623730222
 10
1126.1
 20
-280.1999999999999
 42
0.0
 10
1126.1
 20
-280.3
 42
-0.4142135623730118
 10
1125.8
 20
-280.5999999999999
 42
0.0
 10
1124.8
 20
-280.5999999999999
 42
-0.4142135623731159
 10
1124.5
 20
-280.3
 42
0.0
 10
1124.5
 20
-280.1999999999999
 42
0.4142135623731575
 10
1124.3
 20
-279.9999999999999
 42
0.0
 10
1109.8
 20
-280.0
 42
-0.414213562373095
 10
1109.5
 20
-279.6999999999999
 42
0.0
 10
1109.5
 20
-278.4797545258414
 42
-0.3939104756150996
 10
1109.779073057877
 20
-278.1804853107633
 42
0.0
 10
1111.720926942123
 20
-278.0446976593779
 42
0.3939104756149773
 10
1112.0
 20
-277.7454284442998
 42
0.0
 10
1112.0
 20
-277.5
 42
0.4142135623730784
 10
1111.5
 20
-277.0000000000001
 42
0.0
 10
1106.8
 20
-277.0
 42
0.414213562373095
 10
1106.5
 20
-277.3
 42
0.0
 10
1106.5
 20
-278.7000000000001
 42
-0.4142135623731034
 10
1106.0
 20
-279.2000000000002
 42
0.414213562373095
 10
1105.5
 20
-279.7000000000001
 42
0.0
 10
1105.5
 20
-280.9
 42
0.1321217801717718
 10
1105.54046957652
 20
-281.0504790991744
 42
0.0745948980827436
 10
1105.596052383342
 20
-281.1200122034329
 42
0.1890875373103184
 10
1105.8
 20
-281.1999999999999
 42
0.0
 10
1106.3
 20
-281.1999999999999
 42
-0.414213562373095
 10
1106.5
 20
-281.4
 42
0.0
 10
1106.5
 20
-294.0000000000001
 42
-0.4142135623730867
 10
1105.5
 20
-295.0
 42
0.0
 10
1092.0
 20
-295.0
 42
-0.414213562373095
 10
1091.0
 20
-294.0000000000001
 42
0.0
 10
1091.0
 20
-293.0330127018923
 42
0.2679491924311069
 97
        0
 92
        2
 72
     1
 73
     1
 93
        8
 10
1105.5
 20
-297.5000000000001
 42
-0.4142135623730929
 10
1106.5
 20
-298.5000000000001
 42
0.0
 10
1106.5
 20
-308.5
 42
-0.414213562373095
 10
1105.5
 20
-309.5
 42
0.0
 10
1092.0
 20
-309.5
 42
-0.414213562373095
 10
1091.0
 20
-308.5
 42
0.0
 10
1091.0
 20
-298.5000000000001
 42
-0.414213562373095
 10
1092.0
 20
-297.5
 42
0.0
 97
        0
 75
     0
 76
     1
 98
        0
  0
LWPOLYLINE
  5
A8
330
A6
100
AcDbEntity
  8
FEIN
  6
Continuous
 62
     7
100
AcDbPolyline
 90
      103
 70
     1
 43
0.0
 10
1090.5
 20
-292.1669872981079
 10
1090.5
 20
-281.4
 42
-0.4142135623730742
 10
1090.7
 20
-281.1999999999999
 10
1091.2
 20
-281.1999999999999
 42
0.2279028027246515
 10
1091.434306964616
 20
-281.0873505973633
 42
0.1702400275404554
 10
1091.5
 20
-280.9
 10
1091.5
 20
-279.7000000000001
 42
0.414213562373095
 10
1091.0
 20
-279.2
 42
-0.4142135623730867
 10
1090.5
 20
-278.7000000000001
 10
1090.5
 20
-277.3
 42
0.4142135623730673
 10
1090.2
 20
-277.0
 10
1088.8
 20
-277.0
 42
0.4142135623730395
 10
1088.5
 20
-277.3
 10
1088.5
 20
-336.7
 42
0.4142135623731226
 10
1088.8
 20
-337.0
 10
1090.2
 20
-337.0
 42
0.414213562373095
 10
1090.5
 20
-336.7
 10
1090.5
 20
-335.3
 42
-0.414213562373095
 10
1091.0
 20
-334.8
 42
0.414213562373095
 10
1091.5
 20
-334.3000000000001
 10
1091.5
 20
-333.1000000000001
 42
0.4142135623731644
 10
1091.2
 20
-332.8000000000001
 10
1090.7
 20
-332.8000000000001
 42
-0.414213562373095
 10
1090.5
 20
-332.6000000000001
 10
1090.5
 20
-314.8330127018921
 42
-0.2679491924311226
 10
1090.75
 20
-314.4
 42
0.2679491924310841
 10
1091.0
 20
-313.9669872981078
 10
1091.0
 20
-313.0
 42
-0.4142135623730909
 10
1092.0
 20
-312.0000000000001
 10
1105.5
 20
-312.0000000000001
 42
-0.4142135623730867
 10
1106.5
 20
-313.0
 10
1106.5
 20
-332.6000000000001
 42
-0.414213562373095
 10
1106.3
 20
-332.8000000000001
 10
1105.8
 20
-332.8000000000001
 42
0.4142135623731019
 10
1105.5
 20
-333.1000000000001
 10
1105.5
 20
-334.3000000000001
 42
0.414213562373095
 10
1106.0
 20
-334.8000000000001
 42
-0.4142135623731159
 10
1106.5
 20
-335.3
 10
1106.5
 20
-336.7
 42
0.4142135623731226
 10
1106.8
 20
-337.0
 10
1108.2
 20
-337.0
 42
0.4142135623731228
 10
1108.5
 20
-336.7
 10
1108.5
 20
-287.8000000000001
 42
-0.4142135623732753
 10
1108.8
 20
-287.5
 10
1115.2
 20
-287.5
 42
0.4142135623730603
 10
1115.5
 20
-287.2
 10
1115.5
 20
-286.2
 42
0.4142135623730812
 10
1115.2
 20
-285.9000000000001
 10
1112.3
 20
-285.8999999999999
 10
1112.3
 20
-285.8279056191362
 42
0.2679491924311648
 10
1112.15
 20
-285.5680979980009
 10
1111.518605760695
 20
-285.2035623639736
 42
0.8324306053760493
 10
1111.071990023403
 20
-285.7274084095225
 42
-0.5111996690700592
 10
1108.89224137931
 20
-284.8474416006669
 42
0.8857851797221997
 10
1108.89224137931
 20
-284.1525583993331
 42
-0.5111996690700487
 10
1111.071990023403
 20
-283.2725915904775
 42
0.8324306053759476
 10
1111.518605760695
 20
-283.7964376360264
 10
1112.156346652053
 20
-283.4282377607282
 42
0.2679491924311655
 10
1112.3
 20
-283.179422863406
 42
0.1657019053367753
 10
1112.240218979313
 20
-283.0039885320246
 42
0.0440455152396844
 10
1111.948181818182
 20
-282.6872681681465
 42
-0.2112895013235379
 10
1111.85
 20
-282.4653010050624
 10
1111.85
 20
-282.3
 42
-0.4142135623731227
 10
1112.15
 20
-282.0
 10
1130.2
 20
-282.0
 10
1130.5
 20
-281.6999999999999
 10
1130.8
 20
-282.0
 10
1149.0
 20
-282.0
 42
0.414213562373095
 10
1149.5
 20
-281.5
 10
1149.5
 20
-280.5
 42
0.414213562373095
 10
1149.0
 20
-280.0
 10
1126.3
 20
-280.0
 42
0.4142135623730222
 10
1126.1
 20
-280.1999999999999
 10
1126.1
 20
-280.3
 42
-0.4142135623730118
 10
1125.8
 20
-280.5999999999999
 10
1124.8
 20
-280.5999999999999
 42
-0.4142135623731159
 10
1124.5
 20
-280.3
 10
1124.5
 20
-280.1999999999999
 42
0.4142135623731575
 10
1124.3
 20
-279.9999999999999
 10
1109.8
 20
-280.0
 42
-0.414213562373095
 10
1109.5
 20
-279.6999999999999
 10
1109.5
 20
-278.4797545258414
 42
-0.3939104756150996
 10
1109.779073057877
 20
-278.1804853107633
 10
1111.720926942123
 20
-278.0446976593779
 42
0.3939104756149773
 10
1112.0
 20
-277.7454284442998
 10
1112.0
 20
-277.5
 42
0.4142135623730784
 10
1111.5
 20
-277.0000000000001
 10
1106.8
 20
-277.0
 42
0.414213562373095
 10
1106.5
 20
-277.3
 10
1106.5
 20
-278.7000000000001
 42
-0.4142135623731034
 10
1106.0
 20
-279.2000000000002
 42
0.414213562373095
 10
1105.5
 20
-279.7000000000001
 10
1105.5
 20
-280.9
 42
0.1321217801717718
 10
1105.54046957652
 20
-281.0504790991744
 42
0.0745948980827436
 10
1105.596052383342
 20
-281.1200122034329
 42
0.1890875373103184
 10
1105.8
 20
-281.1999999999999
 10
1106.3
 20
-281.1999999999999
 42
-0.414213562373095
 10
1106.5
 20
-281.4
 10
1106.5
 20
-294.0000000000001
 42
-0.4142135623730867
 10
1105.5
 20
-295.0
 10
1092.0
 20
-295.0
 42
-0.414213562373095
 10
1091.0
 20
-294.0000000000001
 10
1091.0
 20
-293.0330127018923
 42
0.2679491924311069
  0
LWPOLYLINE
  5
A9
330
A6
100
AcDbEntity
  8
FEIN
  6
Continuous
 62
     7
100
AcDbPolyline
 90
        8
 70
     1
 43
0.0
 10
1105.5
 20
-297.5000000000001
 42
-0.4142135623730929
 10
1106.5
 20
-298.5000000000001
 10
1106.5
 20
-308.5
 42
-0.414213562373095
 10
1105.5
 20
-309.5
 10
1092.0
 20
-309.5
 42
-0.414213562373095
 10
1091.0
 20
-308.5
 10
1091.0
 20
-298.5000000000001
 42
-0.414213562373095
 10
1092.0
 20
-297.5
  0
HATCH
  5
AA
330
A6
100
AcDbEntity
  8
FEIN
  6
Continuous
 62
   254
420
 13421772
100
AcDbHatch
 10
0.0
 20
0.0
 30
0.0
210
0.0
220
0.0
230
1.0
  2
SOLID
 70
     1
 71
     0
 91
        1
 92
       18
 72
     1
 73
     1
 93
       28
 10
1105.762964289354
 20
-279.2314079668087
 42
0.4142135623731533
 10
1106.262964289354
 20
-278.7314079668086
 42
0.0
 10
1106.262964289353
 20
-277.6314079668085
 42
0.4142135623729287
 10
1106.062964289353
 20
-277.4314079668085
 42
0.0
 10
1090.962964289354
 20
-277.4314079668085
 42
0.4142135623730377
 10
1090.762964289353
 20
-277.6314079668085
 42
0.0
 10
1090.762964289353
 20
-278.7314079668086
 42
0.4142135623731533
 10
1091.262964289353
 20
-279.2314079668087
 42
0.0
 10
1091.512964289353
 20
-279.2314079668084
 42
-0.414213562372965
 10
1091.712964289354
 20
-279.4314079668085
 42
0.0
 10
1091.712964289354
 20
-280.6206436717474
 42
-0.1316524975874127
 10
1091.578989693138
 20
-281.1206436717475
 42
0.0
 10
1091.457304870649
 20
-281.3314079668086
 42
0.1989123673796412
 10
1091.257504025639
 20
-282.8490460570136
 42
0.0
 10
1091.744499383163
 20
-284.6665374743392
 42
0.8769764629927305
 10
1092.712964289353
 20
-284.5390366506134
 42
0.0
 10
1092.712964289354
 20
-279.7314079668085
 42
-2.414213562373903
 10
1093.012964289353
 20
-279.4314079668085
 42
0.0
 10
1104.012964289353
 20
-279.4314079668085
 42
-2.414213562371882
 10
1104.312964289353
 20
-279.7314079668085
 42
0.0
 10
1104.312964289353
 20
-284.5390366506134
 42
0.8769764629927334
 10
1105.281429195545
 20
-284.6665374743393
 42
0.0
 10
1105.768424553067
 20
-282.8490460570136
 42
0.1989123673796347
 10
1105.568623708058
 20
-281.3314079668086
 42
0.0
 10
1105.446938885569
 20
-281.1206436717474
 42
-0.1316524975873982
 10
1105.312964289353
 20
-280.6206436717474
 42
0.0
 10
1105.312964289353
 20
-279.4314079668085
 42
-0.414213562373095
 10
1105.512964289353
 20
-279.2314079668087
 42
0.0
 97
        0
 75
     0
 76
     1
 98
        0
  0
LWPOLYLINE
  5
AB
330
A6
100
AcDbEntity
  8
FEIN
  6
Continuous
 62
     7
100
AcDbPolyline
 90
       28
 70
     1
 43
0.0
 10
1105.762964289354
 20
-279.2314079668087
 42
0.4142135623731533
 10
1106.262964289354
 20
-278.7314079668086
 10
1106.262964289353
 20
-277.6314079668085
 42
0.4142135623729287
 10
1106.062964289353
 20
-277.4314079668085
 10
1090.962964289354
 20
-277.4314079668085
 42
0.4142135623730377
 10
1090.762964289353
 20
-277.6314079668085
 10
1090.762964289353
 20
-278.7314079668086
 42
0.4142135623731533
 10
1091.262964289353
 20
-279.2314079668087
 10
1091.512964289353
 20
-279.2314079668084
 42
-0.414213562372965
 10
1091.712964289354
 20
-279.4314079668085
 10
1091.712964289354
 20
-280.6206436717474
 42
-0.1316524975874127
 10
1091.578989693138
 20
-281.1206436717475
 10
1091.457304870649
 20
-281.3314079668086
 42
0.1989123673796412
 10
1091.257504025639
 20
-282.8490460570136
 10
1091.744499383163
 20
-284.6665374743392
 42
0.8769764629927305
 10
1092.712964289353
 20
-284.5390366506134
 10
1092.712964289354
 20
-279.7314079668085
 42
-2.414213562373903
 10
1093.012964289353
 20
-279.4314079668085
 10
1104.012964289353
 20
-279.4314079668085
 42
-2.414213562371882
 10
1104.312964289353
 20
-279.7314079668085
 10
1104.312964289353
 20
-284.5390366506134
 42
0.8769764629927334
 10
1105.281429195545
 20
-284.6665374743393
 10
1105.768424553067
 20
-282.8490460570136
 42
0.1989123673796347
 10
1105.568623708058
 20
-281.3314079668086
 10
1105.446938885569
 20
-281.1206436717474
 42
-0.1316524975873982
 10
1105.312964289353
 20
-280.6206436717474
 10
1105.312964289353
 20
-279.4314079668085
 42
-0.414213562373095
 10
1105.512964289353
 20
-279.2314079668087
  0
HATCH
  5
AC
330
A6
100
AcDbEntity
  8
FEIN
  6
Continuous
 62
   254
420
 13421772
100
AcDbHatch
 10
0.0
 20
0.0
 30
0.0
210
0.0
220
0.0
230
1.0
  2
SOLID
 70
     1
 71
     0
 91
        1
 92
       18
 72
     1
 73
     1
 93
       28
 10
1105.762964289354
 20
-334.7760873732485
 42
-0.4142135623731533
 10
1106.262964289354
 20
-335.2760873732486
 42
0.0
 10
1106.262964289353
 20
-336.3760873732487
 42
-0.4142135623729287
 10
1106.062964289353
 20
-336.5760873732487
 42
0.0
 10
1090.962964289354
 20
-336.5760873732487
 42
-0.4142135623730377
 10
1090.762964289353
 20
-336.3760873732487
 42
0.0
 10
1090.762964289353
 20
-335.2760873732486
 42
-0.4142135623731533
 10
1091.262964289353
 20
-334.7760873732485
 42
0.0
 10
1091.512964289353
 20
-334.7760873732487
 42
0.414213562372965
 10
1091.712964289354
 20
-334.5760873732487
 42
0.0
 10
1091.712964289354
 20
-333.3868516683098
 42
0.1316524975874127
 10
1091.578989693138
 20
-332.8868516683096
 42
0.0
 10
1091.457304870649
 20
-332.6760873732486
 42
-0.1989123673796412
 10
1091.257504025639
 20
-331.1584492830436
 42
0.0
 10
1091.744499383163
 20
-329.340957865718
 42
-0.8769764629927305
 10
1092.712964289353
 20
-329.4684586894438
 42
0.0
 10
1092.712964289354
 20
-334.2760873732487
 42
2.414213562373903
 10
1093.012964289353
 20
-334.5760873732487
 42
0.0
 10
1104.012964289353
 20
-334.5760873732487
 42
2.414213562371882
 10
1104.312964289353
 20
-334.2760873732487
 42
0.0
 10
1104.312964289353
 20
-329.4684586894438
 42
-0.8769764629927334
 10
1105.281429195545
 20
-329.3409578657179
 42
0.0
 10
1105.768424553067
 20
-331.1584492830436
 42
-0.1989123673796347
 10
1105.568623708058
 20
-332.6760873732485
 42
0.0
 10
1105.446938885569
 20
-332.8868516683098
 42
0.1316524975873982
 10
1105.312964289353
 20
-333.3868516683098
 42
0.0
 10
1105.312964289353
 20
-334.5760873732487
 42
0.414213562373095
 10
1105.512964289353
 20
-334.7760873732485
 42
0.0
 97
        0
 75
     0
 76
     1
 98
        0
  0
LWPOLYLINE
  5
AD
330
A6
100
AcDbEntity
  8
FEIN
  6
Continuous
 62
     7
100
AcDbPolyline
 90
       28
 70
     1
 43
0.0
 10
1105.762964289354
 20
-334.7760873732485
 42
-0.4142135623731533
 10
1106.262964289354
 20
-335.2760873732486
 10
1106.262964289353
 20
-336.3760873732487
 42
-0.4142135623729287
 10
1106.062964289353
 20
-336.5760873732487
 10
1090.962964289354
 20
-336.5760873732487
 42
-0.4142135623730377
 10
1090.762964289353
 20
-336.3760873732487
 10
1090.762964289353
 20
-335.2760873732486
 42
-0.4142135623731533
 10
1091.262964289353
 20
-334.7760873732485
 10
1091.512964289353
 20
-334.7760873732487
 42
0.414213562372965
 10
1091.712964289354
 20
-334.5760873732487
 10
1091.712964289354
 20
-333.3868516683098
 42
0.1316524975874127
 10
1091.578989693138
 20
-332.8868516683096
 10
1091.457304870649
 20
-332.6760873732486
 42
-0.1989123673796412
 10
1091.257504025639
 20
-331.1584492830436
 10
1091.744499383163
 20
-329.340957865718
 42
-0.8769764629927305
 10
1092.712964289353
 20
-329.4684586894438
 10
1092.712964289354
 20
-334.2760873732487
 42
2.414213562373903
 10
1093.012964289353
 20
-334.5760873732487
 10
1104.012964289353
 20
-334.5760873732487
 42
2.414213562371882
 10
1104.312964289353
 20
-334.2760873732487
 10
1104.312964289353
 20
-329.4684586894438
 42
-0.8769764629927334
 10
1105.281429195545
 20
-329.3409578657179
 10
1105.768424553067
 20
-331.1584492830436
 42
-0.1989123673796347
 10
1105.568623708058
 20
-332.6760873732485
 10
1105.446938885569
 20
-332.8868516683098
 42
0.1316524975873982
 10
1105.312964289353
 20
-333.3868516683098
 10
1105.312964289353
 20
-334.5760873732487
 42
0.414213562373095
 10
1105.512964289353
 20
-334.7760873732485
  0
HATCH
  5
AE
330
A6
100
AcDbEntity
  8
FEIN
 62
   254
420
 13421772
 48
0.5
100
AcDbHatch
 10
0.0
 20
0.0
 30
0.0
210
0.0
220
0.0
230
1.0
  2
SOLID
 70
     1
 71
     0
 91
        1
 92
       18
 72
     1
 73
     1
 93
       60
 10
1149.487226596532
 20
-280.3000000000007
 42
0.0
 10
1149.487226596532
 20
-281.8002294000518
 42
-0.3939104756149457
 10
1149.208153538655
 20
-282.0994986151297
 42
0.0
 10
1147.938018301611
 20
-282.1883151229932
 42
0.1473837716506253
 10
1146.796138885708
 20
-283.0216985489436
 42
0.4187904109049907
 10
1146.903166426516
 20
-283.4356468236624
 42
0.0
 10
1147.431183103867
 20
-283.7411924760825
 42
0.3589714747272201
 10
1147.807612413566
 20
-283.6786262813866
 42
-0.0141413640309499
 10
1147.855544406209
 20
-283.6266649540963
 42
0.1730356836663313
 10
1147.939713998515
 20
-283.4434693181709
 42
-0.2611842625529236
 10
1148.105131959418
 20
-283.2011392648678
 42
-0.2350226135546912
 10
1149.396910496409
 20
-283.2021554405853
 42
-0.2611842625528785
 10
1149.561946995649
 20
-283.4447454454115
 42
0.1730356836662915
 10
1149.645828262799
 20
-283.6280732783025
 42
-0.0133900538511248
 10
1149.691211145214
 20
-283.6772782136294
 42
0.1730356836675285
 10
1149.867173485719
 20
-283.7756774819992
 42
-0.2611842625546094
 10
1150.09565692999
 20
-283.9597488600517
 42
-0.1941495908692867
 10
1150.093654459414
 20
-285.044910420927
 42
-0.2611842625545828
 10
1149.864493232245
 20
-285.2281372980113
 42
0.1730356836675638
 10
1149.688168935028
 20
-285.3258864847236
 42
-0.0120132907910476
 10
1149.647409516484
 20
-285.3699955259193
 42
0.1730356836663207
 10
1149.563861223984
 20
-285.5534753452773
 42
-0.2611842625529862
 10
1149.399265425145
 20
-285.7963645783191
 42
-0.2494948871031386
 10
1148.037410174081
 20
-285.7626688695484
 42
-0.1938950085994804
 10
1147.939375834913
 20
-285.560989862544
 42
0.1776403097576467
 10
1147.85491810173
 20
-285.3723896632234
 42
-0.0140263259722257
 10
1147.807401006015
 20
-285.3208276965786
 42
0.358487266049958
 10
1147.43143368246
 20
-285.2579072416123
 42
0.0
 10
1146.903679150474
 20
-285.5619125173171
 42
0.2682136055308738
 10
1146.753422715471
 20
-285.8218680226287
 42
0.0
 10
1146.753422715471
 20
-285.8998483201403
 42
0.0
 10
1143.8
 20
-285.8998483201403
 42
0.4142135623730778
 10
1143.5
 20
-286.1998483201403
 42
0.0
 10
1143.5
 20
-287.1998483201403
 42
0.414213562373095
 10
1143.8
 20
-287.4998483201403
 42
0.0
 10
1150.2
 20
-287.4998483201403
 42
-0.4142135623731037
 10
1150.5
 20
-287.7998483201403
 42
0.0
 10
1150.5
 20
-336.7000000000007
 42
0.414213562373095
 10
1150.8
 20
-337.0000000000007
 42
0.0
 10
1152.2
 20
-337.0000000000007
 42
0.4142135623731125
 10
1152.5
 20
-336.7000000000007
 42
0.0
 10
1152.5
 20
-277.4998483201403
 42
0.414213562373095
 10
1152.0
 20
-276.9998483201402
 42
0.0
 10
1130.8
 20
-276.9998483201402
 42
0.0
 10
1130.5
 20
-277.2998483201403
 42
0.0
 10
1130.2
 20
-276.9998483201402
 42
0.0
 10
1114.209484366007
 20
-276.9998483201403
 42
0.3311822983355778
 10
1113.730583585633
 20
-277.3561331763379
 42
-0.3119240601426924
 10
1112.842538498632
 20
-278.066266938993
 42
0.0
 10
1109.965121763128
 20
-278.2674755179397
 42
0.3939104756149434
 10
1109.5
 20
-278.7662575430696
 42
0.0
 10
1109.5
 20
-279.5000000000007
 42
0.414213562373095
 10
1110.0
 20
-280.0000000000007
 42
0.0
 10
1124.55
 20
-280.0000000000007
 42
0.0
 10
1124.55
 20
-280.2000000000007
 42
0.4142135623731036
 10
1124.85
 20
-280.5000000000007
 42
0.0
 10
1125.75
 20
-280.5000000000007
 42
0.4142135623731039
 10
1126.05
 20
-280.2000000000007
 42
0.0
 10
1126.05
 20
-280.0000000000007
 42
0.0
 10
1149.187226596532
 20
-280.0000000000007
 42
-0.4142135623730863
 97
        0
 75
     0
 76
     1
 98
        0
  0
LWPOLYLINE
  5
AF
330
A6
100
AcDbEntity
  8
FEIN
 48
0.5
100
AcDbPolyline
 90
       60
 70
     1
 43
0.0
 10
1149.487226596532
 20
-280.3000000000007
 10
1149.487226596532
 20
-281.8002294000518
 42
-0.3939104756149457
 10
1149.208153538655
 20
-282.0994986151297
 10
1147.938018301611
 20
-282.1883151229932
 42
0.1473837716506253
 10
1146.796138885708
 20
-283.0216985489436
 42
0.4187904109049907
 10
1146.903166426516
 20
-283.4356468236624
 10
1147.431183103867
 20
-283.7411924760825
 42
0.3589714747272201
 10
1147.807612413566
 20
-283.6786262813866
 42
-0.0141413640309499
 10
1147.855544406209
 20
-283.6266649540963
 42
0.1730356836663313
 10
1147.939713998515
 20
-283.4434693181709
 42
-0.2611842625529236
 10
1148.105131959418
 20
-283.2011392648678
 42
-0.2350226135546912
 10
1149.396910496409
 20
-283.2021554405853
 42
-0.2611842625528785
 10
1149.561946995649
 20
-283.4447454454115
 42
0.1730356836662915
 10
1149.645828262799
 20
-283.6280732783025
 42
-0.0133900538511248
 10
1149.691211145214
 20
-283.6772782136294
 42
0.1730356836675285
 10
1149.867173485719
 20
-283.7756774819992
 42
-0.2611842625546094
 10
1150.09565692999
 20
-283.9597488600517
 42
-0.1941495908692867
 10
1150.093654459414
 20
-285.044910420927
 42
-0.2611842625545828
 10
1149.864493232245
 20
-285.2281372980113
 42
0.1730356836675638
 10
1149.688168935028
 20
-285.3258864847236
 42
-0.0120132907910476
 10
1149.647409516484
 20
-285.3699955259193
 42
0.1730356836663207
 10
1149.563861223984
 20
-285.5534753452773
 42
-0.2611842625529862
 10
1149.399265425145
 20
-285.7963645783191
 42
-0.2494948871031386
 10
1148.037410174081
 20
-285.7626688695484
 42
-0.1938950085994804
 10
1147.939375834913
 20
-285.560989862544
 42
0.1776403097576467
 10
1147.85491810173
 20
-285.3723896632234
 42
-0.0140263259722257
 10
1147.807401006015
 20
-285.3208276965786
 42
0.358487266049958
 10
1147.43143368246
 20
-285.2579072416123
 10
1146.903679150474
 20
-285.5619125173171
 42
0.2682136055308738
 10
1146.753422715471
 20
-285.8218680226287
 10
1146.753422715471
 20
-285.8998483201403
 10
1143.8
 20
-285.8998483201403
 42
0.4142135623730778
 10
1143.5
 20
-286.1998483201403
 10
1143.5
 20
-287.1998483201403
 42
0.414213562373095
 10
1143.8
 20
-287.4998483201403
 10
1150.2
 20
-287.4998483201403
 42
-0.4142135623731037
 10
1150.5
 20
-287.7998483201403
 10
1150.5
 20
-336.7000000000007
 42
0.414213562373095
 10
1150.8
 20
-337.0000000000007
 10
1152.2
 20
-337.0000000000007
 42
0.4142135623731125
 10
1152.5
 20
-336.7000000000007
 10
1152.5
 20
-277.4998483201403
 42
0.414213562373095
 10
1152.0
 20
-276.9998483201402
 10
1130.8
 20
-276.9998483201402
 10
1130.5
 20
-277.2998483201403
 10
1130.2
 20
-276.9998483201402
 10
1114.209484366007
 20
-276.9998483201403
 42
0.3311822983355778
 10
1113.730583585633
 20
-277.3561331763379
 42
-0.3119240601426924
 10
1112.842538498632
 20
-278.066266938993
 10
1109.965121763128
 20
-278.2674755179397
 42
0.3939104756149434
 10
1109.5
 20
-278.7662575430696
 10
1109.5
 20
-279.5000000000007
 42
0.414213562373095
 10
1110.0
 20
-280.0000000000007
 10
1124.55
 20
-280.0000000000007
 10
1124.55
 20
-280.2000000000007
 42
0.4142135623731036
 10
1124.85
 20
-280.5000000000007
 10
1125.75
 20
-280.5000000000007
 42
0.4142135623731039
 10
1126.05
 20
-280.2000000000007
 10
1126.05
 20
-280.0000000000007
 10
1149.187226596532
 20
-280.0000000000007
 42
-0.4142135623730863
  0
HATCH
  5
B0
330
A6
100
AcDbEntity
  8
FEIN
  6
Continuous
 62
   254
420
 13421772
100
AcDbHatch
 10
0.0
 20
0.0
 30
0.0
210
0.0
220
0.0
230
1.0
  2
SOLID
 70
     1
 71
     0
 91
        1
 92
       18
 72
     1
 73
     1
 93
       75
 10
1134.970198675403
 20
-316.1466129390602
 42
0.4441645093222433
 10
1134.749999999906
 20
-316.3455903586539
 42
0.0
 10
1134.749999999906
 20
-318.3000000000006
 42
0.414213562373095
 10
1134.949999999906
 20
-318.5000000000006
 42
0.0
 10
1150.199999999906
 20
-318.5000000000006
 42
0.414213562373095
 10
1150.499999999906
 20
-318.2000000000006
 42
0.0
 10
1150.499999999906
 20
-288.0000000000006
 42
0.414213562373095
 10
1149.999999999906
 20
-287.5000000000006
 42
0.0
 10
1143.449999999906
 20
-287.5000000000006
 42
-0.414213562373095
 10
1143.249999999906
 20
-287.3000000000006
 42
0.0
 10
1143.249999999906
 20
-287.0000000000006
 42
0.414213562373095
 10
1142.749999999906
 20
-286.5000000000006
 42
0.0
 10
1116.249999999906
 20
-286.5000000000006
 42
0.414213562373095
 10
1115.749999999906
 20
-287.0000000000006
 42
0.0
 10
1115.749999999906
 20
-287.3000000000006
 42
-0.414213562373095
 10
1115.549999999906
 20
-287.5000000000006
 42
0.0
 10
1108.999999999906
 20
-287.5000000000006
 42
0.414213562373095
 10
1108.499999999906
 20
-288.0000000000006
 42
0.0
 10
1108.499999999906
 20
-318.2000000000006
 42
0.414213562373095
 10
1108.799999999906
 20
-318.5000000000006
 42
0.0
 10
1124.049999999906
 20
-318.5000000000006
 42
0.414213562373095
 10
1124.249999999906
 20
-318.3000000000006
 42
0.0
 10
1124.249999999906
 20
-316.3455903586539
 42
0.444164509322238
 10
1124.029801324409
 20
-316.1466129390601
 42
-0.0456917805358553
 10
1118.55847611741
 20
-316.2004842959313
 42
-0.3168915294551443
 10
1117.231663572101
 20
-315.0936886487885
 42
0.0
 10
1116.499999999906
 20
-312.3630830233109
 42
0.0
 10
1116.499999999906
 20
-310.4614378277666
 42
0.1826758136815917
 10
1116.249999999906
 20
-309.8000000000005
 42
-0.1826758136815888
 10
1115.999999999906
 20
-309.1385621722345
 42
0.0
 10
1115.999999999906
 20
-304.7500000000006
 42
0.9999999999999999
 10
1114.799999999906
 20
-304.7500000000006
 42
0.0
 10
1114.799999999906
 20
-306.6000000000006
 42
-0.414213562373095
 10
1114.499999999906
 20
-306.9000000000005
 42
0.0
 10
1113.499999999906
 20
-306.9000000000005
 42
0.414213562373095
 10
1112.999999999906
 20
-307.4000000000005
 42
0.0
 10
1112.999999999906
 20
-312.9000000000005
 42
-0.9999999999999999
 10
1110.999999999906
 20
-312.9000000000005
 42
0.0
 10
1110.999999999906
 20
-292.9000000000005
 42
-0.9999999999999999
 10
1112.999999999906
 20
-292.9000000000005
 42
0.0
 10
1112.999999999906
 20
-294.4000000000005
 42
0.414213562373095
 10
1113.499999999906
 20
-294.9000000000005
 42
0.0
 10
1114.499999999906
 20
-294.9000000000005
 42
-0.414213562373095
 10
1114.799999999906
 20
-295.2000000000006
 42
0.0
 10
1114.799999999906
 20
-297.0500000000006
 42
0.9999999999999999
 10
1115.999999999906
 20
-297.0500000000006
 42
0.0
 10
1115.999999999906
 20
-291.3000000000006
 42
-0.414213562373095
 10
1116.999999999906
 20
-290.3000000000006
 42
0.0
 10
1129.199999999906
 20
-290.3000000000006
 42
0.0
 10
1129.499999999906
 20
-290.0000000000006
 42
0.0
 10
1129.799999999906
 20
-290.3000000000006
 42
0.0
 10
1141.999999999906
 20
-290.3000000000006
 42
-0.414213562373095
 10
1142.999999999906
 20
-291.3000000000006
 42
0.0
 10
1142.999999999906
 20
-297.0500000000006
 42
0.9999999999999999
 10
1144.199999999906
 20
-297.0500000000006
 42
0.0
 10
1144.199999999906
 20
-295.2000000000006
 42
-0.414213562373095
 10
1144.499999999906
 20
-294.9000000000005
 42
0.0
 10
1145.499999999906
 20
-294.9000000000005
 42
0.414213562373095
 10
1145.999999999906
 20
-294.4000000000005
 42
0.0
 10
1145.999999999906
 20
-292.9000000000005
 42
-0.9999999999999999
 10
1147.999999999906
 20
-292.9000000000005
 42
0.0
 10
1147.999999999906
 20
-312.9000000000005
 42
-0.9999999999999999
 10
1145.999999999906
 20
-312.9000000000005
 42
0.0
 10
1145.999999999906
 20
-307.4000000000005
 42
0.414213562373095
 10
1145.499999999906
 20
-306.9000000000005
 42
0.0
 10
1144.499999999906
 20
-306.9000000000005
 42
-0.414213562373095
 10
1144.199999999906
 20
-306.6000000000006
 42
0.0
 10
1144.199999999906
 20
-304.7500000000006
 42
0.9999999999999999
 10
1142.999999999906
 20
-304.7500000000006
 42
0.0
 10
1142.999999999906
 20
-309.1385621722345
 42
-0.1826758136815893
 10
1142.749999999906
 20
-309.8000000000006
 42
0.1826758136815915
 10
1142.499999999906
 20
-310.4614378277666
 42
0.0
 10
1142.499999999906
 20
-312.3630830233109
 42
0.0
 10
1141.768336427711
 20
-315.0936886487885
 42
-0.3168915294551435
 10
1140.441523882403
 20
-316.2004842959313
 42
-0.0456917805358553
 97
        0
 75
     0
 76
     1
 98
        0
  0
LWPOLYLINE
  5
B1
330
A6
100
AcDbEntity
  8
FEIN
  6
Continuous
100
AcDbPolyline
 90
       75
 70
     1
 43
0.0
 10
1134.970198675403
 20
-316.1466129390602
 42
0.4441645093222433
 10
1134.749999999906
 20
-316.3455903586539
 10
1134.749999999906
 20
-318.3000000000006
 42
0.414213562373095
 10
1134.949999999906
 20
-318.5000000000006
 10
1150.199999999906
 20
-318.5000000000006
 42
0.414213562373095
 10
1150.499999999906
 20
-318.2000000000006
 10
1150.499999999906
 20
-288.0000000000006
 42
0.414213562373095
 10
1149.999999999906
 20
-287.5000000000006
 10
1143.449999999906
 20
-287.5000000000006
 42
-0.414213562373095
 10
1143.249999999906
 20
-287.3000000000006
 10
1143.249999999906
 20
-287.0000000000006
 42
0.414213562373095
 10
1142.749999999906
 20
-286.5000000000006
 10
1116.249999999906
 20
-286.5000000000006
 42
0.414213562373095
 10
1115.749999999906
 20
-287.0000000000006
 10
1115.749999999906
 20
-287.3000000000006
 42
-0.414213562373095
 10
1115.549999999906
 20
-287.5000000000006
 10
1108.999999999906
 20
-287.5000000000006
 42
0.414213562373095
 10
1108.499999999906
 20
-288.0000000000006
 10
1108.499999999906
 20
-318.2000000000006
 42
0.414213562373095
 10
1108.799999999906
 20
-318.5000000000006
 10
1124.049999999906
 20
-318.5000000000006
 42
0.414213562373095
 10
1124.249999999906
 20
-318.3000000000006
 10
1124.249999999906
 20
-316.3455903586539
 42
0.444164509322238
 10
1124.029801324409
 20
-316.1466129390601
 42
-0.0456917805358553
 10
1118.55847611741
 20
-316.2004842959313
 42
-0.3168915294551443
 10
1117.231663572101
 20
-315.0936886487885
 10
1116.499999999906
 20
-312.3630830233109
 10
1116.499999999906
 20
-310.4614378277666
 42
0.1826758136815917
 10
1116.249999999906
 20
-309.8000000000005
 42
-0.1826758136815888
 10
1115.999999999906
 20
-309.1385621722345
 10
1115.999999999906
 20
-304.7500000000006
 42
0.9999999999999999
 10
1114.799999999906
 20
-304.7500000000006
 10
1114.799999999906
 20
-306.6000000000006
 42
-0.414213562373095
 10
1114.499999999906
 20
-306.9000000000005
 10
1113.499999999906
 20
-306.9000000000005
 42
0.414213562373095
 10
1112.999999999906
 20
-307.4000000000005
 10
1112.999999999906
 20
-312.9000000000005
 42
-0.9999999999999999
 10
1110.999999999906
 20
-312.9000000000005
 10
1110.999999999906
 20
-292.9000000000005
 42
-0.9999999999999999
 10
1112.999999999906
 20
-292.9000000000005
 10
1112.999999999906
 20
-294.4000000000005
 42
0.414213562373095
 10
1113.499999999906
 20
-294.9000000000005
 10
1114.499999999906
 20
-294.9000000000005
 42
-0.414213562373095
 10
1114.799999999906
 20
-295.2000000000006
 10
1114.799999999906
 20
-297.0500000000006
 42
0.9999999999999999
 10
1115.999999999906
 20
-297.0500000000006
 10
1115.999999999906
 20
-291.3000000000006
 42
-0.414213562373095
 10
1116.999999999906
 20
-290.3000000000006
 10
1129.199999999906
 20
-290.3000000000006
 10
1129.499999999906
 20
-290.0000000000006
 10
1129.799999999906
 20
-290.3000000000006
 10
1141.999999999906
 20
-290.3000000000006
 42
-0.414213562373095
 10
1142.999999999906
 20
-291.3000000000006
 10
1142.999999999906
 20
-297.0500000000006
 42
0.9999999999999999
 10
1144.199999999906
 20
-297.0500000000006
 10
1144.199999999906
 20
-295.2000000000006
 42
-0.414213562373095
 10
1144.499999999906
 20
-294.9000000000005
 10
1145.499999999906
 20
-294.9000000000005
 42
0.414213562373095
 10
1145.999999999906
 20
-294.4000000000005
 10
1145.999999999906
 20
-292.9000000000005
 42
-0.9999999999999999
 10
1147.999999999906
 20
-292.9000000000005
 10
1147.999999999906
 20
-312.9000000000005
 42
-0.9999999999999999
 10
1145.999999999906
 20
-312.9000000000005
 10
1145.999999999906
 20
-307.4000000000005
 42
0.414213562373095
 10
1145.499999999906
 20
-306.9000000000005
 10
1144.499999999906
 20
-306.9000000000005
 42
-0.414213562373095
 10
1144.199999999906
 20
-306.6000000000006
 10
1144.199999999906
 20
-304.7500000000006
 42
0.9999999999999999
 10
1142.999999999906
 20
-304.7500000000006
 10
1142.999999999906
 20
-309.1385621722345
 42
-0.1826758136815893
 10
1142.749999999906
 20
-309.8000000000006
 42
0.1826758136815915
 10
1142.499999999906
 20
-310.4614378277666
 10
1142.499999999906
 20
-312.3630830233109
 10
1141.768336427711
 20
-315.0936886487885
 42
-0.3168915294551435
 10
1140.441523882403
 20
-316.2004842959313
 42
-0.0456917805358553
  0
ENDBLK
  5
B3
330
A6
100
AcDbEntity
  8
0
100
AcDbBlockEnd
  0
ENDSEC
  0
SECTION
  2
ENTITIES
  0
DIMENSION
  5
7A
330
1F
100
AcDbEntity
  8
Maße
100
AcDbDimension
280
     0
  2
*D1
 10
1441.737616244315
 20
1780.0
 30
0.0
 11
1441.737616244315
 21
1810.0
 31
0.0
 70
   161
 71
     5
 42
60.0
 73
     0
 74
     0
 75
     0
  3
Standard
100
AcDbAlignedDimension
 13
1434.737616244315
 23
1840.0
 33
0.0
 14
1434.737616244315
 24
1780.0
 34
0.0
1001
ACAD
1000
DSTYLE
1002
{
1070
   279
1070
     2
1070
   289
1070
     0
1002
}
  0
DIMENSION
  5
89
330
1F
100
AcDbEntity
  8
Maße
100
AcDbDimension
280
     0
  2
*D2
 10
1388.737616244315
 20
1773.0
 30
0.0
 11
1379.737616244315
 21
1773.0
 31
0.0
 70
   161
 71
     5
 42
18.0
 73
     0
 74
     0
 75
     0
  3
Standard
100
AcDbAlignedDimension
 13
1370.737616244315
 23
1780.0
 33
0.0
 14
1388.737616244315
 24
1780.0
 34
0.0
1001
ACAD
1000
DSTYLE
1002
{
1070
   279
1070
     2
1070
   289
1070
     0
1002
}
  0
DIMENSION
  5
97
330
1F
100
AcDbEntity
  8
Maße
100
AcDbDimension
280
     0
  2
*D3
 10
1434.737616244315
 20
1773.0
 30
0.0
 11
1411.737616244315
 21
1773.0
 31
0.0
 70
   161
 71
     5
 42
46.0
 73
     0
 74
     0
 75
     0
  3
Standard
100
AcDbAlignedDimension
 13
1388.737616244315
 23
1780.0
 33
0.0
 14
1434.737616244315
 24
1780.0
 34
0.0
1001
ACAD
1000
DSTYLE
1002
{
1070
   279
1070
     2
1070
   289
1070
     0
1002
}
  0
MTEXT
  5
A5
330
1F
100
AcDbEntity
  8
Schrift
 62
    16
420
  8323072
100
AcDbMText
 10
1187.0
 20
1840.009651934166
 30
0.0
 40
6.0
 41
366.1461716119359
 46
0.0
 71
     1
 72
     1
  1
Laufschiene 1-läufig mit Basisprofil \Pmax. 22 mm Sockelleiste
 73
     1
 44
1.0
  0
INSERT
  5
B4
330
1F
100
AcDbEntity
  8
FEIN
100
AcDbBlockReference
  2
*U4
 10
282.2376162443147
 20
2117.0
 30
0.0
  0
ENDSEC
  0
SECTION
  2
OBJECTS
  0
DICTIONARY
  5
C
330
0
100
AcDbDictionary
281
     1
  3
ACAD_DETAILVIEWSTYLE
350
BC
  3
ACAD_GROUP
350
D
  3
ACAD_LAYOUT
350
1A
  3
ACAD_MATERIAL
350
43
  3
ACAD_MLEADERSTYLE
350
6B
  3
ACAD_MLINESTYLE
350
17
  3
ACAD_PLOTSETTINGS
350
19
  3
ACAD_PLOTSTYLENAME
350
E
  3
ACAD_SCALELIST
350
47
  3
ACAD_SECTIONVIEWSTYLE
350
BD
  3
ACAD_TABLESTYLE
350
69
  3
ACAD_VISUALSTYLE
350
2A
  3
ACDB_RECOMPOSE_DATA
350
B9
  3
AcDbVariableDictionary
350
B5
  0
SUN
  5
6D
330
29
100
AcDbSun
 90
        1
290
     0
 63
     7
421
 16777215
 40
1.0
291
     1
 91
  2455826
 92
 54000000
292
     0
 70
     2
 71
   256
280
     1
  0
DICTIONARY
  5
BC
102
{ACAD_REACTORS
330
C
102
}
330
C
100
AcDbDictionary
281
     1
  0
DICTIONARY
  5
D
102
{ACAD_REACTORS
330
C
102
}
330
C
100
AcDbDictionary
281
     1
  0
DICTIONARY
  5
1A
102
{ACAD_REACTORS
330
C
102
}
330
C
100
AcDbDictionary
281
     1
  3
Layout1
350
1E
  3
Layout2
350
26
  3
Model
350
22
  0
DICTIONARY
  5
43
102
{ACAD_REACTORS
330
C
102
}
330
C
100
AcDbDictionary
281
     1
  3
ByBlock
350
45
  3
ByLayer
350
44
  3
Global
350
46
  0
DICTIONARY
  5
6B
102
{ACAD_REACTORS
330
C
102
}
330
C
100
AcDbDictionary
281
     1
  3
Standard
350
6C
  0
DICTIONARY
  5
17
102
{ACAD_REACTORS
330
C
102
}
330
C
100
AcDbDictionary
281
     1
  3
Standard
350
18
  0
DICTIONARY
  5
19
102
{ACAD_REACTORS
330
C
102
}
330
C
100
AcDbDictionary
281
     1
  0
ACDBDICTIONARYWDFLT
  5
E
102
{ACAD_REACTORS
330
C
102
}
330
C
100
AcDbDictionary
281
     1
  3
Normal
350
F
100
AcDbDictionaryWithDefault
340
F
  0
DICTIONARY
  5
47
102
{ACAD_REACTORS
330
C
102
}
330
C
100
AcDbDictionary
281
     1
  3
A0
350
48
  3
A1
350
49
  3
A2
350
4A
  3
A3
350
4B
  3
A4
350
4C
  3
A5
350
4D
  3
A6
350
4E
  3
A7
350
4F
  3
A8
350
50
  3
A9
350
51
  3
B0
350
52
  3
B1
350
53
  3
B2
350
54
  3
B3
350
55
  3
B4
350
56
  3
B5
350
57
  3
B6
350
58
  3
B7
350
59
  3
B8
350
5A
  3
B9
350
5B
  3
C0
350
5C
  3
C1
350
5D
  3
C2
350
5E
  3
C3
350
5F
  3
C4
350
60
  3
C5
350
61
  3
C6
350
62
  3
C7
350
63
  3
C8
350
64
  3
C9
350
65
  3
D0
350
66
  3
D1
350
67
  3
D2
350
68
  0
DICTIONARY
  5
BD
102
{ACAD_REACTORS
330
C
102
}
330
C
100
AcDbDictionary
281
     1
  0
DICTIONARY
  5
69
102
{ACAD_REACTORS
330
C
102
}
330
C
100
AcDbDictionary
281
     1
  3
Standard
350
6A
  0
DICTIONARY
  5
2A
102
{ACAD_REACTORS
330
C
102
}
330
C
100
AcDbDictionary
281
     1
  3
2dWireframe
350
2F
  3
Basic
350
32
  3
Brighten
350
36
  3
ColorChange
350
3A
  3
Conceptual
350
34
  3
Dim
350
35
  3
EdgeColorOff
350
3D
  3
Facepattern
350
39
  3
Flat
350
2B
  3
FlatWithEdges
350
2C
  3
Gouraud
350
2D
  3
GouraudWithEdges
350
2E
  3
Hidden
350
31
  3
JitterOff
350
3B
  3
Linepattern
350
38
  3
OverhangOff
350
3C
  3
Realistic
350
33
  3
Shaded
350
42
  3
Shaded with edges
350
41
  3
Shades of Gray
350
3E
  3
Sketchy
350
3F
  3
Thicken
350
37
  3
Wireframe
350
30
  3
X-Ray
350
40
  0
XRECORD
  5
B9
102
{ACAD_REACTORS
330
C
102
}
330
C
100
AcDbXrecord
280
     1
 90
        1
330
6A
  0
DICTIONARY
  5
B5
102
{ACAD_REACTORS
330
C
102
}
330
C
100
AcDbDictionary
281
     1
  3
CANNOSCALE
350
B6
  3
CENTEREXE
350
BE
  3
CENTERLTYPEFILE
350
BF
  3
CMLEADERSTYLE
350
BB
  3
CTABLESTYLE
350
BA
  0
LAYOUT
  5
1E
102
{ACAD_REACTORS
330
1A
102
}
330
1A
100
AcDbPlotSettings
  1

  2
none_device
  4

  6

 40
0.0
 41
0.0
 42
0.0
 43
0.0
 44
0.0
 45
0.0
 46
0.0
 47
0.0
 48
0.0
 49
0.0
140
0.0
141
0.0
142
1.0
143
1.0
 70
   688
 72
     1
 73
     0
 74
     5
  7

 75
    16
 76
     0
 77
     2
 78
   300
147
1.0
148
0.0
149
0.0
100
AcDbLayout
  1
Layout1
 70
     1
 71
     1
 10
0.0
 20
0.0
 11
420.0
 21
297.0
 12
0.0
 22
0.0
 32
0.0
 14
1.000000000000000E+20
 24
1.000000000000000E+20
 34
1.000000000000000E+20
 15
-1.000000000000000E+20
 25
-1.000000000000000E+20
 35
-1.000000000000000E+20
146
0.0
 13
0.0
 23
0.0
 33
0.0
 16
1.0
 26
0.0
 36
0.0
 17
0.0
 27
1.0
 37
0.0
 76
     0
330
1B
  0
LAYOUT
  5
26
102
{ACAD_REACTORS
330
1A
102
}
330
1A
100
AcDbPlotSettings
  1

  2
none_device
  4

  6

 40
0.0
 41
0.0
 42
0.0
 43
0.0
 44
0.0
 45
0.0
 46
0.0
 47
0.0
 48
0.0
 49
0.0
140
0.0
141
0.0
142
1.0
143
1.0
 70
   688
 72
     1
 73
     0
 74
     5
  7

 75
    16
 76
     0
 77
     2
 78
   300
147
1.0
148
0.0
149
0.0
100
AcDbLayout
  1
Layout2
 70
     1
 71
     2
 10
0.0
 20
0.0
 11
0.0
 21
0.0
 12
0.0
 22
0.0
 32
0.0
 14
0.0
 24
0.0
 34
0.0
 15
0.0
 25
0.0
 35
0.0
146
0.0
 13
0.0
 23
0.0
 33
0.0
 16
1.0
 26
0.0
 36
0.0
 17
0.0
 27
1.0
 37
0.0
 76
     0
330
23
  0
LAYOUT
  5
22
102
{ACAD_REACTORS
330
1A
102
}
330
1A
100
AcDbPlotSettings
  1

  2
none_device
  4
Letter_(8.50_x_11.00_Inches)
  6

 40
6.35
 41
6.35
 42
6.35000508
 43
6.35000508
 44
215.9
 45
279.4
 46
0.0
 47
0.0
 48
0.0
 49
0.0
140
0.0
141
0.0
142
1.0
143
1.0
 70
  1712
 72
     1
 73
     0
 74
     0
  7

 75
     0
 76
     0
 77
     2
 78
   300
147
1.0
148
0.0
149
0.0
100
AcDbLayout
  1
Model
 70
     1
 71
     0
 10
0.0
 20
0.0
 11
420.0
 21
297.0
 12
0.0
 22
0.0
 32
0.0
 14
1.000000000000000E+20
 24
1.000000000000000E+20
 34
1.000000000000000E+20
 15
-1.000000000000000E+20
 25
-1.000000000000000E+20
 35
-1.000000000000000E+20
146
0.0
 13
0.0
 23
0.0
 33
0.0
 16
1.0
 26
0.0
 36
0.0
 17
0.0
 27
1.0
 37
0.0
 76
     0
330
1F
331
29
  0
MATERIAL
  5
45
102
{ACAD_REACTORS
330
43
102
}
330
43
100
AcDbMaterial
  1
ByBlock
 72
     1
 94
      127
  0
MATERIAL
  5
44
102
{ACAD_REACTORS
330
43
102
}
330
43
100
AcDbMaterial
  1
ByLayer
 72
     1
 94
      127
  0
MATERIAL
  5
46
102
{ACAD_REACTORS
330
43
102
}
330
43
100
AcDbMaterial
  1
Global
 72
     1
 94
      127
  0
MLEADERSTYLE
  5
6C
102
{ACAD_REACTORS
330
6B
102
}
330
6B
100
AcDbMLeaderStyle
179
     2
170
     2
171
     1
172
     0
 90
        2
 40
0.0
 41
0.0
173
     1
 91
-1056964608
340
14
 92
       -2
290
     1
 42
2.0
291
     1
 43
8.0
  3
Standard
341
0
 44
4.0
300

342
11
174
     1
178
     6
175
     1
176
     0
 93
-1056964608
 45
4.0
292
     0
297
     0
 46
4.0
343
0
 94
-1056964608
 47
1.0
 49
1.0
140
1.0
293
     1
141
0.0
294
     1
177
     0
142
1.0
295
     0
296
     0
143
3.75
271
     0
272
     9
273
     9
298
     0
  0
MLINESTYLE
  5
18
102
{ACAD_REACTORS
330
17
102
}
330
17
100
AcDbMlineStyle
  2
Standard
 70
     0
  3

 62
   256
 51
90.0
 52
90.0
 71
     2
 49
0.5
 62
   256
  6
BYLAYER
 49
-0.5
 62
   256
  6
BYLAYER
  0
ACDBPLACEHOLDER
  5
F
102
{ACAD_REACTORS
330
E
102
}
330
E
  0
SCALE
  5
48
102
{ACAD_REACTORS
330
47
102
}
330
47
100
AcDbScale
 70
     0
300
1:1
140
1.0
141
1.0
290
     1
  0
SCALE
  5
49
102
{ACAD_REACTORS
330
47
102
}
330
47
100
AcDbScale
 70
     0
300
1:2
140
1.0
141
2.0
290
     0
  0
SCALE
  5
4A
102
{ACAD_REACTORS
330
47
102
}
330
47
100
AcDbScale
 70
     0
300
1:4
140
1.0
141
4.0
290
     0
  0
SCALE
  5
4B
102
{ACAD_REACTORS
330
47
102
}
330
47
100
AcDbScale
 70
     0
300
1:5
140
1.0
141
5.0
290
     0
  0
SCALE
  5
4C
102
{ACAD_REACTORS
330
47
102
}
330
47
100
AcDbScale
 70
     0
300
1:8
140
1.0
141
8.0
290
     0
  0
SCALE
  5
4D
102
{ACAD_REACTORS
330
47
102
}
330
47
100
AcDbScale
 70
     0
300
1:10
140
1.0
141
10.0
290
     0
  0
SCALE
  5
4E
102
{ACAD_REACTORS
330
47
102
}
330
47
100
AcDbScale
 70
     0
300
1:16
140
1.0
141
16.0
290
     0
  0
SCALE
  5
4F
102
{ACAD_REACTORS
330
47
102
}
330
47
100
AcDbScale
 70
     0
300
1:20
140
1.0
141
20.0
290
     0
  0
SCALE
  5
50
102
{ACAD_REACTORS
330
47
102
}
330
47
100
AcDbScale
 70
     0
300
1:30
140
1.0
141
30.0
290
     0
  0
SCALE
  5
51
102
{ACAD_REACTORS
330
47
102
}
330
47
100
AcDbScale
 70
     0
300
1:40
140
1.0
141
40.0
290
     0
  0
SCALE
  5
52
102
{ACAD_REACTORS
330
47
102
}
330
47
100
AcDbScale
 70
     0
300
1:50
140
1.0
141
50.0
290
     0
  0
SCALE
  5
53
102
{ACAD_REACTORS
330
47
102
}
330
47
100
AcDbScale
 70
     0
300
1:100
140
1.0
141
100.0
290
     0
  0
SCALE
  5
54
102
{ACAD_REACTORS
330
47
102
}
330
47
100
AcDbScale
 70
     0
300
2:1
140
2.0
141
1.0
290
     0
  0
SCALE
  5
55
102
{ACAD_REACTORS
330
47
102
}
330
47
100
AcDbScale
 70
     0
300
4:1
140
4.0
141
1.0
290
     0
  0
SCALE
  5
56
102
{ACAD_REACTORS
330
47
102
}
330
47
100
AcDbScale
 70
     0
300
8:1
140
8.0
141
1.0
290
     0
  0
SCALE
  5
57
102
{ACAD_REACTORS
330
47
102
}
330
47
100
AcDbScale
 70
     0
300
10:1
140
10.0
141
1.0
290
     0
  0
SCALE
  5
58
102
{ACAD_REACTORS
330
47
102
}
330
47
100
AcDbScale
 70
     0
300
100:1
140
100.0
141
1.0
290
     0
  0
SCALE
  5
59
102
{ACAD_REACTORS
330
47
102
}
330
47
100
AcDbScale
 70
     0
300
1/128" = 1'-0"
140
0.0078125
141
12.0
290
     0
  0
SCALE
  5
5A
102
{ACAD_REACTORS
330
47
102
}
330
47
100
AcDbScale
 70
     0
300
1/64" = 1'-0"
140
0.015625
141
12.0
290
     0
  0
SCALE
  5
5B
102
{ACAD_REACTORS
330
47
102
}
330
47
100
AcDbScale
 70
     0
300
1/32" = 1'-0"
140
0.03125
141
12.0
290
     0
  0
SCALE
  5
5C
102
{ACAD_REACTORS
330
47
102
}
330
47
100
AcDbScale
 70
     0
300
1/16" = 1'-0"
140
0.0625
141
12.0
290
     0
  0
SCALE
  5
5D
102
{ACAD_REACTORS
330
47
102
}
330
47
100
AcDbScale
 70
     0
300
3/32" = 1'-0"
140
0.09375
141
12.0
290
     0
  0
SCALE
  5
5E
102
{ACAD_REACTORS
330
47
102
}
330
47
100
AcDbScale
 70
     0
300
1/8" = 1'-0"
140
0.125
141
12.0
290
     0
  0
SCALE
  5
5F
102
{ACAD_REACTORS
330
47
102
}
330
47
100
AcDbScale
 70
     0
300
3/16" = 1'-0"
140
0.1875
141
12.0
290
     0
  0
SCALE
  5
60
102
{ACAD_REACTORS
330
47
102
}
330
47
100
AcDbScale
 70
     0
300
1/4" = 1'-0"
140
0.25
141
12.0
290
     0
  0
SCALE
  5
61
102
{ACAD_REACTORS
330
47
102
}
330
47
100
AcDbScale
 70
     0
300
3/8" = 1'-0"
140
0.375
141
12.0
290
     0
  0
SCALE
  5
62
102
{ACAD_REACTORS
330
47
102
}
330
47
100
AcDbScale
 70
     0
300
1/2" = 1'-0"
140
0.5
141
12.0
290
     0
  0
SCALE
  5
63
102
{ACAD_REACTORS
330
47
102
}
330
47
100
AcDbScale
 70
     0
300
3/4" = 1'-0"
140
0.75
141
12.0
290
     0
  0
SCALE
  5
64
102
{ACAD_REACTORS
330
47
102
}
330
47
100
AcDbScale
 70
     0
300
1" = 1'-0"
140
1.0
141
12.0
290
     0
  0
SCALE
  5
65
102
{ACAD_REACTORS
330
47
102
}
330
47
100
AcDbScale
 70
     0
300
1-1/2" = 1'-0"
140
1.5
141
12.0
290
     0
  0
SCALE
  5
66
102
{ACAD_REACTORS
330
47
102
}
330
47
100
AcDbScale
 70
     0
300
3" = 1'-0"
140
3.0
141
12.0
290
     0
  0
SCALE
  5
67
102
{ACAD_REACTORS
330
47
102
}
330
47
100
AcDbScale
 70
     0
300
6" = 1'-0"
140
6.0
141
12.0
290
     0
  0
SCALE
  5
68
102
{ACAD_REACTORS
330
47
102
}
330
47
100
AcDbScale
 70
     0
300
1'-0" = 1'-0"
140
12.0
141
12.0
290
     0
  0
TABLESTYLE
  5
6A
102
{ACAD_REACTORS
330
69
102
}
102
{ACAD_XDICTIONARY
360
B7
102
}
330
69
100
AcDbTableStyle
  3
Standard
 70
     0
 71
     0
 40
0.06
 41
0.06
280
     0
281
     0
  7
Standard
140
4.5
170
     2
 62
     0
 63
   257
283
     0
 90
        4
 91
        0
  1

274
    -2
284
     1
 64
     0
275
    -2
285
     1
 65
     0
276
    -2
286
     1
 66
     0
277
    -2
287
     1
 67
     0
278
    -2
288
     1
 68
     0
279
    -2
289
     1
 69
     0
  7
Standard
140
6.0
170
     5
 62
     0
 63
   257
283
     0
 90
        4
 91
        0
  1

274
    -2
284
     1
 64
     0
275
    -2
285
     1
 65
     0
276
    -2
286
     1
 66
     0
277
    -2
287
     1
 67
     0
278
    -2
288
     1
 68
     0
279
    -2
289
     1
 69
     0
  7
Standard
140
4.5
170
     5
 62
     0
 63
   257
283
     0
 90
        4
 91
        0
  1

274
    -2
284
     1
 64
     0
275
    -2
285
     1
 65
     0
276
    -2
286
     1
 66
     0
277
    -2
287
     1
 67
     0
278
    -2
288
     1
 68
     0
279
    -2
289
     1
 69
     0
  0
VISUALSTYLE
  5
2F
102
{ACAD_REACTORS
330
2A
102
}
330
2A
100
AcDbVisualStyle
  2
2dWireframe
 70
     4
177
     3
291
     0
 70
    58
 90
        0
176
     1
 90
        2
176
     1
 90
        0
176
     1
 90
        0
176
     1
 40
0.6
176
     1
 40
30.0
176
     1
 62
     7
420
 16777215
176
     1
 90
        1
176
     1
 90
        4
176
     1
 62
     7
176
     1
 62
   257
176
     1
 90
        1
176
     1
 90
        1
176
     1
 40
1.0
176
     1
 90
        0
176
     1
 62
   257
176
     1
 40
1.0
176
     1
 90
        1
176
     1
 90
        6
176
     1
 90
        2
176
     1
 62
     7
176
     1
 90
        5
176
     1
 90
        0
176
     1
 90
        0
176
     1
290
     0
176
     1
 90
        1
176
     1
 40
0.0
176
     1
 90
        0
176
     1
290
     1
176
     1
290
     1
176
     1
290
     0
176
     1
290
     0
176
     1
290
     0
176
     1
290
     0
176
     1
290
     0
176
     1
290
     0
176
     1
290
     0
176
     1
 90
       50
176
     1
 40
0.0
176
     1
 40
1.0
176
     1
 90
        0
176
     1
 62
    18
420
        0
176
     1
 90
       50
176
     1
 90
        3
176
     1
 62
     5
420
      255
176
     1
290
     0
176
     1
 90
       50
176
     1
 90
       50
176
     1
 90
       50
176
     1
290
     0
176
     1
 90
       50
176
     1
 62
   256
176
     0
 40
1.0
176
     0
 90
        2
176
     1
  1
strokes_ogs.tif
176
     1
290
     0
176
     1
 40
1.0
176
     1
 40
1.0
176
     1
  0
VISUALSTYLE
  5
32
102
{ACAD_REACTORS
330
2A
102
}
330
2A
100
AcDbVisualStyle
  2
Basic
 70
     7
177
     3
291
     1
 70
    58
 90
        1
176
     1
 90
        0
176
     1
 90
        1
176
     1
 90
        0
176
     1
 40
0.6
176
     1
 40
30.0
176
     1
 62
     7
420
 16777215
176
     1
 90
        0
176
     1
 90
        4
176
     1
 62
     7
176
     1
 62
   257
176
     1
 90
        1
176
     1
 90
        1
176
     1
 40
1.0
176
     1
 90
        8
176
     1
 62
     7
176
     1
 40
1.0
176
     1
 90
        1
176
     1
 90
        6
176
     1
 90
        2
176
     1
 62
     7
176
     1
 90
        5
176
     1
 90
        0
176
     1
 90
        0
176
     1
290
     0
176
     1
 90
        1
176
     1
 40
0.0
176
     1
 90
        0
176
     1
290
     0
176
     1
290
     1
176
     1
290
     1
176
     1
290
     0
176
     1
290
     0
176
     1
290
     0
176
     1
290
     0
176
     1
290
     0
176
     1
290
     0
176
     1
 90
       50
176
     1
 40
0.0
176
     1
 40
1.0
176
     1
 90
        0
176
     1
 62
    18
420
        0
176
     1
 90
       50
176
     1
 90
        3
176
     1
 62
     5
420
      255
176
     1
290
     0
176
     1
 90
       50
176
     1
 90
       50
176
     1
 90
       50
176
     1
290
     0
176
     1
 90
       50
176
     1
 62
   256
176
     0
 40
1.0
176
     0
 90
        2
176
     1
  1
strokes_ogs.tif
176
     1
290
     0
176
     1
 40
1.0
176
     1
 40
1.0
176
     1
  0
VISUALSTYLE
  5
36
102
{ACAD_REACTORS
330
2A
102
}
330
2A
100
AcDbVisualStyle
  2
Brighten
 70
    12
177
     3
291
     1
 70
    58
 90
        2
176
     1
 90
        2
176
     1
 90
        0
176
     1
 90
        0
176
     1
 40
0.6
176
     1
 40
30.0
176
     1
 62
     7
420
 16777215
176
     1
 90
        1
176
     1
 90
        4
176
     1
 62
     7
176
     1
 62
   257
176
     1
 90
        1
176
     1
 90
        1
176
     1
 40
1.0
176
     1
 90
        8
176
     1
 62
     7
176
     1
 40
1.0
176
     1
 90
        1
176
     1
 90
        6
176
     1
 90
        2
176
     1
 62
     7
176
     1
 90
        5
176
     1
 90
        0
176
     1
 90
        0
176
     1
290
     0
176
     1
 90
        1
176
     1
 40
50.0
176
     1
 90
        0
176
     1
290
     0
176
     1
290
     1
176
     1
290
     1
176
     1
290
     0
176
     1
290
     0
176
     1
290
     0
176
     1
290
     0
176
     1
290
     0
176
     1
290
     0
176
     1
 90
       50
176
     1
 40
0.0
176
     1
 40
1.0
176
     1
 90
        0
176
     1
 62
    18
420
        0
176
     1
 90
       50
176
     1
 90
        3
176
     1
 62
     5
420
      255
176
     1
290
     0
176
     1
 90
       50
176
     1
 90
       50
176
     1
 90
       50
176
     1
290
     0
176
     1
 90
       50
176
     1
 62
   256
176
     0
 40
1.0
176
     0
 90
        2
176
     1
  1
strokes_ogs.tif
176
     1
290
     0
176
     1
 40
1.0
176
     1
 40
1.0
176
     1
  0
VISUALSTYLE
  5
3A
102
{ACAD_REACTORS
330
2A
102
}
330
2A
100
AcDbVisualStyle
  2
ColorChange
 70
    16
177
     3
291
     1
 70
    58
 90
        2
176
     1
 90
        2
176
     1
 90
        3
176
     1
 90
        0
176
     1
 40
0.6
176
     1
 40
30.0
176
     1
 62
     8
420
  8421504
176
     1
 90
        1
176
     1
 90
        4
176
     1
 62
     7
176
     1
 62
   257
176
     1
 90
        1
176
     1
 90
        1
176
     1
 40
1.0
176
     1
 90
        8
176
     1
 62
     8
420
  8421504
176
     1
 40
1.0
176
     1
 90
        1
176
     1
 90
        6
176
     1
 90
        2
176
     1
 62
     7
176
     1
 90
        5
176
     1
 90
        0
176
     1
 90
        0
176
     1
290
     0
176
     1
 90
        1
176
     1
 40
0.0
176
     1
 90
        0
176
     1
290
     0
176
     1
290
     1
176
     1
290
     1
176
     1
290
     0
176
     1
290
     0
176
     1
290
     0
176
     1
290
     0
176
     1
290
     0
176
     1
290
     0
176
     1
 90
       50
176
     1
 40
0.0
176
     1
 40
1.0
176
     1
 90
        0
176
     1
 62
    18
420
        0
176
     1
 90
       50
176
     1
 90
        3
176
     1
 62
     5
420
      255
176
     1
290
     0
176
     1
 90
       50
176
     1
 90
       50
176
     1
 90
       50
176
     1
290
     0
176
     1
 90
       50
176
     1
 62
   256
176
     0
 40
1.0
176
     0
 90
        2
176
     1
  1
strokes_ogs.tif
176
     1
290
     0
176
     1
 40
1.0
176
     1
 40
1.0
176
     1
  0
VISUALSTYLE
  5
34
102
{ACAD_REACTORS
330
2A
102
}
330
2A
100
AcDbVisualStyle
  2
Conceptual
 70
     9
177
     3
291
     0
 70
    58
 90
        3
176
     1
 90
        2
176
     1
 90
        0
176
     1
 90
        0
176
     1
 40
0.6
176
     1
 40
30.0
176
     1
 62
     7
420
 16777215
176
     1
 90
        2
176
     1
 90
        2
176
     1
 62
     7
176
     1
 62
   257
176
     1
 90
        1
176
     1
 90
        1
176
     1
 40
179.0
176
     1
 90
        8
176
     1
 62
     7
176
     1
 40
1.0
176
     1
 90
        1
176
     1
 90
        6
176
     1
 90
        2
176
     1
 62
     7
176
     1
 90
        3
176
     1
 90
        0
176
     1
 90
        0
176
     1
290
     0
176
     1
 90
        1
176
     1
 40
0.0
176
     1
 90
        0
176
     1
290
     0
176
     1
290
     1
176
     1
290
     1
176
     1
290
     0
176
     1
290
     0
176
     1
290
     0
176
     1
290
     0
176
     1
290
     0
176
     1
290
     0
176
     1
 90
       50
176
     1
 40
0.0
176
     1
 40
1.0
176
     1
 90
        0
176
     1
 62
    18
420
        0
176
     1
 90
       50
176
     1
 90
        3
176
     1
 62
     5
420
      255
176
     1
290
     0
176
     1
 90
       50
176
     1
 90
       50
176
     1
 90
       50
176
     1
290
     0
176
     1
 90
       50
176
     1
 62
   256
176
     0
 40
1.0
176
     0
 90
        2
176
     1
  1
strokes_ogs.tif
176
     1
290
     0
176
     1
 40
1.0
176
     1
 40
1.0
176
     1
  0
VISUALSTYLE
  5
35
102
{ACAD_REACTORS
330
2A
102
}
330
2A
100
AcDbVisualStyle
  2
Dim
 70
    11
177
     3
291
     1
 70
    58
 90
        2
176
     1
 90
        2
176
     1
 90
        0
176
     1
 90
        0
176
     1
 40
0.6
176
     1
 40
30.0
176
     1
 62
     7
420
 16777215
176
     1
 90
        1
176
     1
 90
        4
176
     1
 62
     7
176
     1
 62
   257
176
     1
 90
        1
176
     1
 90
        1
176
     1
 40
1.0
176
     1
 90
        8
176
     1
 62
     7
176
     1
 40
1.0
176
     1
 90
        1
176
     1
 90
        6
176
     1
 90
        2
176
     1
 62
     7
176
     1
 90
        5
176
     1
 90
        0
176
     1
 90
        0
176
     1
290
     0
176
     1
 90
        1
176
     1
 40
-50.0
176
     1
 90
        0
176
     1
290
     0
176
     1
290
     1
176
     1
290
     1
176
     1
290
     0
176
     1
290
     0
176
     1
290
     0
176
     1
290
     0
176
     1
290
     0
176
     1
290
     0
176
     1
 90
       50
176
     1
 40
0.0
176
     1
 40
1.0
176
     1
 90
        0
176
     1
 62
    18
420
        0
176
     1
 90
       50
176
     1
 90
        3
176
     1
 62
     5
420
      255
176
     1
290
     0
176
     1
 90
       50
176
     1
 90
       50
176
     1
 90
       50
176
     1
290
     0
176
     1
 90
       50
176
     1
 62
   256
176
     0
 40
1.0
176
     0
 90
        2
176
     1
  1
strokes_ogs.tif
176
     1
290
     0
176
     1
 40
1.0
176
     1
 40
1.0
176
     1
  0
VISUALSTYLE
  5
3D
102
{ACAD_REACTORS
330
2A
102
}
330
2A
100
AcDbVisualStyle
  2
EdgeColorOff
 70
    22
177
     3
291
     1
 70
    58
 90
        2
176
     0
 90
        2
176
     0
 90
        0
176
     0
 90
        0
176
     0
 40
0.6
176
     0
 40
30.0
176
     0
 62
     7
420
 16777215
176
     0
 90
        1
176
     0
 90
        4
176
     0
 62
     7
176
     0
 62
   257
176
     0
 90
        1
176
     0
 90
        1
176
     0
 40
1.0
176
     0
 90
        8
176
     2
 62
     7
176
     0
 40
1.0
176
     0
 90
        1
176
     0
 90
        6
176
     0
 90
        2
176
     0
 62
     7
176
     0
 90
        5
176
     0
 90
        0
176
     0
 90
        0
176
     0
290
     0
176
     0
 90
        1
176
     0
 40
0.0
176
     0
 90
        0
176
     0
290
     0
176
     0
290
     1
176
     0
290
     1
176
     0
290
     0
176
     0
290
     0
176
     0
290
     0
176
     0
290
     0
176
     0
290
     0
176
     0
290
     0
176
     0
 90
       50
176
     0
 40
0.0
176
     0
 40
1.0
176
     0
 90
        0
176
     0
 62
    18
420
        0
176
     0
 90
       50
176
     0
 90
        3
176
     0
 62
     5
420
      255
176
     0
290
     0
176
     0
 90
       50
176
     0
 90
       50
176
     0
 90
       50
176
     0
290
     0
176
     0
 90
       50
176
     0
 62
   256
176
     0
 40
1.0
176
     0
 90
        2
176
     0
  1
strokes_ogs.tif
176
     0
290
     0
176
     0
 40
1.0
176
     0
 40
1.0
176
     0
  0
VISUALSTYLE
  5
39
102
{ACAD_REACTORS
330
2A
102
}
330
2A
100
AcDbVisualStyle
  2
Facepattern
 70
    15
177
     3
291
     1
 70
    58
 90
        2
176
     1
 90
        2
176
     1
 90
        0
176
     1
 90
        0
176
     1
 40
0.6
176
     1
 40
30.0
176
     1
 62
     7
420
 16777215
176
     1
 90
        1
176
     1
 90
        4
176
     1
 62
     7
176
     1
 62
   257
176
     1
 90
        1
176
     1
 90
        1
176
     1
 40
1.0
176
     1
 90
        8
176
     1
 62
     7
176
     1
 40
1.0
176
     1
 90
        1
176
     1
 90
        6
176
     1
 90
        2
176
     1
 62
     7
176
     1
 90
        5
176
     1
 90
        0
176
     1
 90
        0
176
     1
290
     0
176
     1
 90
        1
176
     1
 40
0.0
176
     1
 90
        0
176
     1
290
     0
176
     1
290
     1
176
     1
290
     1
176
     1
290
     0
176
     1
290
     0
176
     1
290
     0
176
     1
290
     0
176
     1
290
     0
176
     1
290
     0
176
     1
 90
       50
176
     1
 40
0.0
176
     1
 40
1.0
176
     1
 90
        0
176
     1
 62
    18
420
        0
176
     1
 90
       50
176
     1
 90
        3
176
     1
 62
     5
420
      255
176
     1
290
     0
176
     1
 90
       50
176
     1
 90
       50
176
     1
 90
       50
176
     1
290
     0
176
     1
 90
       50
176
     1
 62
   256
176
     0
 40
1.0
176
     0
 90
        2
176
     1
  1
strokes_ogs.tif
176
     1
290
     0
176
     1
 40
1.0
176
     1
 40
1.0
176
     1
  0
VISUALSTYLE
  5
2B
102
{ACAD_REACTORS
330
2A
102
}
330
2A
100
AcDbVisualStyle
  2
Flat
 70
     0
177
     3
291
     1
 70
    58
 90
        2
176
     1
 90
        1
176
     1
 90
        1
176
     1
 90
        2
176
     1
 40
0.6
176
     1
 40
30.0
176
     1
 62
     7
420
 16777215
176
     1
 90
        0
176
     1
 90
        0
176
     1
 62
     7
176
     1
 62
   257
176
     1
 90
        1
176
     1
 90
        1
176
     1
 40
1.0
176
     1
 90
        8
176
     1
 62
     7
176
     1
 40
1.0
176
     1
 90
        1
176
     1
 90
        6
176
     1
 90
        2
176
     1
 62
     7
176
     1
 90
        5
176
     1
 90
        0
176
     1
 90
        0
176
     1
290
     0
176
     1
 90
       13
176
     1
 40
0.0
176
     1
 90
        0
176
     1
290
     0
176
     1
290
     1
176
     1
290
     1
176
     1
290
     0
176
     1
290
     0
176
     1
290
     0
176
     1
290
     0
176
     1
290
     0
176
     1
290
     0
176
     1
 90
       50
176
     1
 40
0.0
176
     1
 40
1.0
176
     1
 90
        0
176
     1
 62
    18
420
        0
176
     1
 90
       50
176
     1
 90
        3
176
     1
 62
     5
420
      255
176
     1
290
     0
176
     1
 90
       50
176
     1
 90
       50
176
     1
 90
       50
176
     1
290
     0
176
     1
 90
       50
176
     1
 62
   256
176
     0
 40
1.0
176
     0
 90
        2
176
     1
  1
strokes_ogs.tif
176
     1
290
     0
176
     1
 40
1.0
176
     1
 40
1.0
176
     1
  0
VISUALSTYLE
  5
2C
102
{ACAD_REACTORS
330
2A
102
}
330
2A
100
AcDbVisualStyle
  2
FlatWithEdges
 70
     1
177
     3
291
     1
 70
    58
 90
        2
176
     1
 90
        1
176
     1
 90
        1
176
     1
 90
        2
176
     1
 40
0.6
176
     1
 40
30.0
176
     1
 62
     7
420
 16777215
176
     1
 90
        1
176
     1
 90
        0
176
     1
 62
     7
176
     1
 62
   257
176
     1
 90
        1
176
     1
 90
        1
176
     1
 40
1.0
176
     1
 90
        0
176
     1
 62
   257
176
     1
 40
1.0
176
     1
 90
        1
176
     1
 90
        6
176
     1
 90
        2
176
     1
 62
     7
176
     1
 90
        5
176
     1
 90
        0
176
     1
 90
        0
176
     1
290
     0
176
     1
 90
       13
176
     1
 40
0.0
176
     1
 90
        0
176
     1
290
     0
176
     1
290
     1
176
     1
290
     1
176
     1
290
     0
176
     1
290
     0
176
     1
290
     0
176
     1
290
     0
176
     1
290
     0
176
     1
290
     0
176
     1
 90
       50
176
     1
 40
0.0
176
     1
 40
1.0
176
     1
 90
        0
176
     1
 62
    18
420
        0
176
     1
 90
       50
176
     1
 90
        3
176
     1
 62
     5
420
      255
176
     1
290
     0
176
     1
 90
       50
176
     1
 90
       50
176
     1
 90
       50
176
     1
290
     0
176
     1
 90
       50
176
     1
 62
   256
176
     0
 40
1.0
176
     0
 90
        2
176
     1
  1
strokes_ogs.tif
176
     1
290
     0
176
     1
 40
1.0
176
     1
 40
1.0
176
     1
  0
VISUALSTYLE
  5
2D
102
{ACAD_REACTORS
330
2A
102
}
330
2A
100
AcDbVisualStyle
  2
Gouraud
 70
     2
177
     3
291
     1
 70
    58
 90
        2
176
     1
 90
        2
176
     1
 90
        1
176
     1
 90
        2
176
     1
 40
0.6
176
     1
 40
30.0
176
     1
 62
     7
420
 16777215
176
     1
 90
        0
176
     1
 90
        0
176
     1
 62
     7
176
     1
 62
   257
176
     1
 90
        1
176
     1
 90
        1
176
     1
 40
1.0
176
     1
 90
        0
176
     1
 62
     7
176
     1
 40
1.0
176
     1
 90
        1
176
     1
 90
        6
176
     1
 90
        2
176
     1
 62
     7
176
     1
 90
        5
176
     1
 90
        0
176
     1
 90
        0
176
     1
290
     0
176
     1
 90
       13
176
     1
 40
0.0
176
     1
 90
        0
176
     1
290
     0
176
     1
290
     1
176
     1
290
     1
176
     1
290
     0
176
     1
290
     0
176
     1
290
     0
176
     1
290
     0
176
     1
290
     0
176
     1
290
     0
176
     1
 90
       50
176
     1
 40
0.0
176
     1
 40
1.0
176
     1
 90
        0
176
     1
 62
    18
420
        0
176
     1
 90
       50
176
     1
 90
        3
176
     1
 62
     5
420
      255
176
     1
290
     0
176
     1
 90
       50
176
     1
 90
       50
176
     1
 90
       50
176
     1
290
     0
176
     1
 90
       50
176
     1
 62
   256
176
     0
 40
1.0
176
     0
 90
        2
176
     1
  1
strokes_ogs.tif
176
     1
290
     0
176
     1
 40
1.0
176
     1
 40
1.0
176
     1
  0
VISUALSTYLE
  5
2E
102
{ACAD_REACTORS
330
2A
102
}
330
2A
100
AcDbVisualStyle
  2
GouraudWithEdges
 70
     3
177
     3
291
     1
 70
    58
 90
        2
176
     1
 90
        2
176
     1
 90
        1
176
     1
 90
        2
176
     1
 40
0.6
176
     1
 40
30.0
176
     1
 62
     7
420
 16777215
176
     1
 90
        1
176
     1
 90
        0
176
     1
 62
     7
176
     1
 62
   257
176
     1
 90
        1
176
     1
 90
        1
176
     1
 40
1.0
176
     1
 90
        0
176
     1
 62
   257
176
     1
 40
1.0
176
     1
 90
        1
176
     1
 90
        6
176
     1
 90
        2
176
     1
 62
     7
176
     1
 90
        5
176
     1
 90
        0
176
     1
 90
        0
176
     1
290
     0
176
     1
 90
       13
176
     1
 40
0.0
176
     1
 90
        0
176
     1
290
     0
176
     1
290
     1
176
     1
290
     1
176
     1
290
     0
176
     1
290
     0
176
     1
290
     0
176
     1
290
     0
176
     1
290
     0
176
     1
290
     0
176
     1
 90
       50
176
     1
 40
0.0
176
     1
 40
1.0
176
     1
 90
        0
176
     1
 62
    18
420
        0
176
     1
 90
       50
176
     1
 90
        3
176
     1
 62
     5
420
      255
176
     1
290
     0
176
     1
 90
       50
176
     1
 90
       50
176
     1
 90
       50
176
     1
290
     0
176
     1
 90
       50
176
     1
 62
   256
176
     0
 40
1.0
176
     0
 90
        2
176
     1
  1
strokes_ogs.tif
176
     1
290
     0
176
     1
 40
1.0
176
     1
 40
1.0
176
     1
  0
VISUALSTYLE
  5
31
102
{ACAD_REACTORS
330
2A
102
}
330
2A
100
AcDbVisualStyle
  2
Hidden
 70
     6
177
     3
291
     0
 70
    58
 90
        1
176
     1
 90
        2
176
     1
 90
        2
176
     1
 90
        0
176
     1
 40
0.6
176
     1
 40
30.0
176
     1
 62
     7
420
 16777215
176
     1
 90
        2
176
     1
 90
        2
176
     1
 62
     7
176
     1
 62
   257
176
     1
 90
        2
176
     1
 90
        1
176
     1
 40
40.0
176
     1
 90
        0
176
     1
 62
   257
176
     1
 40
1.0
176
     1
 90
        1
176
     1
 90
        6
176
     1
 90
        2
176
     1
 62
     7
176
     1
 90
        3
176
     1
 90
        0
176
     1
 90
        0
176
     1
290
     0
176
     1
 90
        1
176
     1
 40
0.0
176
     1
 90
        0
176
     1
290
     0
176
     1
290
     1
176
     1
290
     1
176
     1
290
     0
176
     1
290
     0
176
     1
290
     0
176
     1
290
     0
176
     1
290
     0
176
     1
290
     0
176
     1
 90
       50
176
     1
 40
0.0
176
     1
 40
1.0
176
     1
 90
        0
176
     1
 62
    18
420
        0
176
     1
 90
       50
176
     1
 90
        3
176
     1
 62
     5
420
      255
176
     1
290
     0
176
     1
 90
       50
176
     1
 90
       50
176
     1
 90
       50
176
     1
290
     0
176
     1
 90
       50
176
     1
 62
   256
176
     0
 40
1.0
176
     0
 90
        2
176
     1
  1
strokes_ogs.tif
176
     1
290
     0
176
     1
 40
1.0
176
     1
 40
1.0
176
     1
  0
VISUALSTYLE
  5
3B
102
{ACAD_REACTORS
330
2A
102
}
330
2A
100
AcDbVisualStyle
  2
JitterOff
 70
    20
177
     3
291
     1
 70
    58
 90
        2
176
     0
 90
        2
176
     0
 90
        0
176
     0
 90
        0
176
     0
 40
0.6
176
     0
 40
30.0
176
     0
 62
     7
420
 16777215
176
     0
 90
        1
176
     0
 90
        4
176
     0
 62
     7
176
     0
 62
   257
176
     0
 90
        1
176
     0
 90
        1
176
     0
 40
1.0
176
     0
 90
       10
176
     2
 62
     7
176
     0
 40
1.0
176
     0
 90
        1
176
     0
 90
        6
176
     0
 90
        2
176
     0
 62
     7
176
     0
 90
        5
176
     0
 90
        0
176
     0
 90
        0
176
     0
290
     0
176
     0
 90
        1
176
     0
 40
0.0
176
     0
 90
        0
176
     0
290
     0
176
     0
290
     1
176
     0
290
     1
176
     0
290
     0
176
     0
290
     0
176
     0
290
     0
176
     0
290
     0
176
     0
290
     0
176
     0
290
     0
176
     0
 90
       50
176
     0
 40
0.0
176
     0
 40
1.0
176
     0
 90
        0
176
     0
 62
    18
420
        0
176
     0
 90
       50
176
     0
 90
        3
176
     0
 62
     5
420
      255
176
     0
290
     0
176
     0
 90
       50
176
     0
 90
       50
176
     0
 90
       50
176
     0
290
     0
176
     0
 90
       50
176
     0
 62
   256
176
     0
 40
1.0
176
     0
 90
        2
176
     0
  1
strokes_ogs.tif
176
     0
290
     0
176
     0
 40
1.0
176
     0
 40
1.0
176
     0
  0
VISUALSTYLE
  5
38
102
{ACAD_REACTORS
330
2A
102
}
330
2A
100
AcDbVisualStyle
  2
Linepattern
 70
    14
177
     3
291
     1
 70
    58
 90
        2
176
     1
 90
        2
176
     1
 90
        0
176
     1
 90
        0
176
     1
 40
0.6
176
     1
 40
30.0
176
     1
 62
     7
420
 16777215
176
     1
 90
        1
176
     1
 90
        4
176
     1
 62
     7
176
     1
 62
   257
176
     1
 90
        7
176
     1
 90
        7
176
     1
 40
1.0
176
     1
 90
        8
176
     1
 62
     7
176
     1
 40
1.0
176
     1
 90
        1
176
     1
 90
        6
176
     1
 90
        2
176
     1
 62
     7
176
     1
 90
        5
176
     1
 90
        0
176
     1
 90
        0
176
     1
290
     0
176
     1
 90
        1
176
     1
 40
0.0
176
     1
 90
        0
176
     1
290
     0
176
     1
290
     1
176
     1
290
     1
176
     1
290
     0
176
     1
290
     0
176
     1
290
     0
176
     1
290
     0
176
     1
290
     0
176
     1
290
     0
176
     1
 90
       50
176
     1
 40
0.0
176
     1
 40
1.0
176
     1
 90
        0
176
     1
 62
    18
420
        0
176
     1
 90
       50
176
     1
 90
        3
176
     1
 62
     5
420
      255
176
     1
290
     0
176
     1
 90
       50
176
     1
 90
       50
176
     1
 90
       50
176
     1
290
     0
176
     1
 90
       50
176
     1
 62
   256
176
     0
 40
1.0
176
     0
 90
        2
176
     1
  1
strokes_ogs.tif
176
     1
290
     0
176
     1
 40
1.0
176
     1
 40
1.0
176
     1
  0
VISUALSTYLE
  5
3C
102
{ACAD_REACTORS
330
2A
102
}
330
2A
100
AcDbVisualStyle
  2
OverhangOff
 70
    21
177
     3
291
     1
 70
    58
 90
        2
176
     0
 90
        2
176
     0
 90
        0
176
     0
 90
        0
176
     0
 40
0.6
176
     0
 40
30.0
176
     0
 62
     7
420
 16777215
176
     0
 90
        1
176
     0
 90
        4
176
     0
 62
     7
176
     0
 62
   257
176
     0
 90
        1
176
     0
 90
        1
176
     0
 40
1.0
176
     0
 90
        9
176
     2
 62
     7
176
     0
 40
1.0
176
     0
 90
        1
176
     0
 90
        6
176
     0
 90
        2
176
     0
 62
     7
176
     0
 90
        5
176
     0
 90
        0
176
     0
 90
        0
176
     0
290
     0
176
     0
 90
        1
176
     0
 40
0.0
176
     0
 90
        0
176
     0
290
     0
176
     0
290
     1
176
     0
290
     1
176
     0
290
     0
176
     0
290
     0
176
     0
290
     0
176
     0
290
     0
176
     0
290
     0
176
     0
290
     0
176
     0
 90
       50
176
     0
 40
0.0
176
     0
 40
1.0
176
     0
 90
        0
176
     0
 62
    18
420
        0
176
     0
 90
       50
176
     0
 90
        3
176
     0
 62
     5
420
      255
176
     0
290
     0
176
     0
 90
       50
176
     0
 90
       50
176
     0
 90
       50
176
     0
290
     0
176
     0
 90
       50
176
     0
 62
   256
176
     0
 40
1.0
176
     0
 90
        2
176
     0
  1
strokes_ogs.tif
176
     0
290
     0
176
     0
 40
1.0
176
     0
 40
1.0
176
     0
  0
VISUALSTYLE
  5
33
102
{ACAD_REACTORS
330
2A
102
}
330
2A
100
AcDbVisualStyle
  2
Realistic
 70
     8
177
     3
291
     0
 70
    58
 90
        2
176
     1
 90
        3
176
     1
 90
        0
176
     1
 90
        2
176
     1
 40
0.6
176
     1
 40
30.0
176
     1
 62
     7
420
 16777215
176
     1
 90
        0
176
     1
 90
        0
176
     1
 62
     7
176
     1
 62
   257
176
     1
 90
        1
176
     1
 90
        1
176
     1
 40
1.0
176
     1
 90
        8
176
     1
 62
   257
176
     1
 40
1.0
176
     1
 90
        1
176
     1
 90
        6
176
     1
 90
        2
176
     1
 62
     7
176
     1
 90
        3
176
     1
 90
        0
176
     1
 90
        0
176
     1
290
     0
176
     1
 90
       13
176
     1
 40
0.0
176
     1
 90
        0
176
     1
290
     0
176
     1
290
     1
176
     1
290
     1
176
     1
290
     0
176
     1
290
     0
176
     1
290
     0
176
     1
290
     0
176
     1
290
     0
176
     1
290
     0
176
     1
 90
       50
176
     1
 40
0.0
176
     1
 40
1.0
176
     1
 90
        0
176
     1
 62
    18
420
        0
176
     1
 90
       50
176
     1
 90
        3
176
     1
 62
     5
420
      255
176
     1
290
     0
176
     1
 90
       50
176
     1
 90
       50
176
     1
 90
       50
176
     1
290
     0
176
     1
 90
       50
176
     1
 62
   256
176
     0
 40
1.0
176
     0
 90
        2
176
     1
  1
strokes_ogs.tif
176
     1
290
     0
176
     1
 40
1.0
176
     1
 40
1.0
176
     1
  0
VISUALSTYLE
  5
42
102
{ACAD_REACTORS
330
2A
102
}
330
2A
100
AcDbVisualStyle
  2
Shaded
 70
    27
177
     3
291
     0
 70
    58
 90
        2
176
     1
 90
        2
176
     1
 90
        1
176
     1
 90
        2
176
     1
 40
0.6
176
     1
 40
30.0
176
     1
 62
     7
420
 16777215
176
     1
 90
        0
176
     1
 90
        4
176
     1
 62
     7
176
     1
 62
   257
176
     1
 90
        1
176
     1
 90
        1
176
     1
 40
1.0
176
     1
 90
        8
176
     1
 62
   257
176
     1
 40
1.0
176
     1
 90
        1
176
     1
 90
        6
176
     1
 90
        2
176
     1
 62
     8
420
  7895160
176
     1
 90
        3
176
     1
 90
        0
176
     1
 90
        0
176
     1
290
     0
176
     1
 90
        5
176
     1
 40
0.0
176
     1
 90
        0
176
     1
290
     0
176
     1
290
     1
176
     1
290
     1
176
     1
290
     0
176
     1
290
     0
176
     1
290
     0
176
     1
290
     0
176
     1
290
     0
176
     1
290
     0
176
     1
 90
       50
176
     1
 40
0.0
176
     1
 40
1.0
176
     1
 90
        0
176
     1
 62
    18
420
        0
176
     1
 90
       50
176
     1
 90
        3
176
     1
 62
     5
420
      255
176
     1
290
     0
176
     1
 90
       50
176
     1
 90
       50
176
     1
 90
       50
176
     1
290
     0
176
     1
 90
       50
176
     1
 62
   256
176
     0
 40
1.0
176
     0
 90
        2
176
     1
  1
strokes_ogs.tif
176
     1
290
     0
176
     1
 40
1.0
176
     1
 40
1.0
176
     1
  0
VISUALSTYLE
  5
41
102
{ACAD_REACTORS
330
2A
102
}
330
2A
100
AcDbVisualStyle
  2
Shaded with edges
 70
    26
177
     3
291
     0
 70
    58
 90
        2
176
     1
 90
        2
176
     1
 90
        1
176
     1
 90
        2
176
     1
 40
0.6
176
     1
 40
30.0
176
     1
 62
     7
420
 16777215
176
     1
 90
        1
176
     1
 90
       10
176
     1
 62
     7
176
     1
 62
   257
176
     1
 90
        2
176
     1
 90
        1
176
     1
 40
1.0
176
     1
 90
        8
176
     1
 62
   257
176
     1
 40
1.0
176
     1
 90
        1
176
     1
 90
        6
176
     1
 90
        2
176
     1
 62
     7
176
     1
 90
        3
176
     1
 90
        0
176
     1
 90
        0
176
     1
290
     0
176
     1
 90
        5
176
     1
 40
0.0
176
     1
 90
        0
176
     1
290
     0
176
     1
290
     1
176
     1
290
     1
176
     1
290
     0
176
     1
290
     0
176
     1
290
     0
176
     1
290
     0
176
     1
290
     0
176
     1
290
     0
176
     1
 90
       50
176
     1
 40
0.0
176
     1
 40
1.0
176
     1
 90
        0
176
     1
 62
    18
420
        0
176
     1
 90
       50
176
     1
 90
        3
176
     1
 62
     5
420
      255
176
     1
290
     0
176
     1
 90
       50
176
     1
 90
       50
176
     1
 90
       50
176
     1
290
     0
176
     1
 90
       50
176
     1
 62
   256
176
     0
 40
1.0
176
     0
 90
        2
176
     1
  1
strokes_ogs.tif
176
     1
290
     0
176
     1
 40
1.0
176
     1
 40
1.0
176
     1
  0
VISUALSTYLE
  5
3E
102
{ACAD_REACTORS
330
2A
102
}
330
2A
100
AcDbVisualStyle
  2
Shades of Gray
 70
    23
177
     3
291
     0
 70
    58
 90
        2
176
     1
 90
        2
176
     1
 90
        3
176
     1
 90
        0
176
     1
 40
0.6
176
     1
 40
30.0
176
     1
 62
     7
420
 16777215
176
     1
 90
        2
176
     1
 90
        2
176
     1
 62
     7
176
     1
 62
     7
176
     1
 90
        1
176
     1
 90
        1
176
     1
 40
40.0
176
     1
 90
        8
176
     1
 62
     7
176
     1
 40
1.0
176
     1
 90
        1
176
     1
 90
        6
176
     1
 90
        2
176
     1
 62
     7
176
     1
 90
        3
176
     1
 90
        0
176
     1
 90
        0
176
     1
290
     0
176
     1
 90
        1
176
     1
 40
0.0
176
     1
 90
        0
176
     1
290
     0
176
     1
290
     1
176
     1
290
     1
176
     1
290
     0
176
     1
290
     0
176
     1
290
     0
176
     1
290
     0
176
     1
290
     0
176
     1
290
     0
176
     1
 90
       50
176
     1
 40
0.0
176
     1
 40
1.0
176
     1
 90
        0
176
     1
 62
    18
420
        0
176
     1
 90
       50
176
     1
 90
        3
176
     1
 62
     5
420
      255
176
     1
290
     0
176
     1
 90
       50
176
     1
 90
       50
176
     1
 90
       50
176
     1
290
     0
176
     1
 90
       50
176
     1
 62
   256
176
     0
 40
1.0
176
     0
 90
        2
176
     1
  1
strokes_ogs.tif
176
     1
290
     0
176
     1
 40
1.0
176
     1
 40
1.0
176
     1
  0
VISUALSTYLE
  5
3F
102
{ACAD_REACTORS
330
2A
102
}
330
2A
100
AcDbVisualStyle
  2
Sketchy
 70
    24
177
     3
291
     0
 70
    58
 90
        1
176
     1
 90
        2
176
     1
 90
        2
176
     1
 90
        0
176
     1
 40
0.6
176
     1
 40
30.0
176
     1
 62
     7
420
 16777215
176
     1
 90
        2
176
     1
 90
        2
176
     1
 62
     7
176
     1
 62
     7
176
     1
 90
        1
176
     1
 90
        1
176
     1
 40
40.0
176
     1
 90
       11
176
     1
 62
     7
176
     1
 40
1.0
176
     1
 90
        1
176
     1
 90
        6
176
     1
 90
        2
176
     1
 62
     7
176
     1
 90
        6
176
     1
 90
        0
176
     1
 90
        0
176
     1
290
     0
176
     1
 90
        1
176
     1
 40
0.0
176
     1
 90
        0
176
     1
290
     0
176
     1
290
     1
176
     1
290
     1
176
     1
290
     0
176
     1
290
     0
176
     1
290
     0
176
     1
290
     0
176
     1
290
     0
176
     1
290
     0
176
     1
 90
       50
176
     1
 40
0.0
176
     1
 40
1.0
176
     1
 90
        0
176
     1
 62
    18
420
        0
176
     1
 90
       50
176
     1
 90
        3
176
     1
 62
     5
420
      255
176
     1
290
     0
176
     1
 90
       50
176
     1
 90
       50
176
     1
 90
       50
176
     1
290
     0
176
     1
 90
       50
176
     1
 62
   256
176
     0
 40
1.0
176
     0
 90
        2
176
     1
  1
strokes_ogs.tif
176
     1
290
     0
176
     1
 40
1.0
176
     1
 40
1.0
176
     1
  0
VISUALSTYLE
  5
37
102
{ACAD_REACTORS
330
2A
102
}
330
2A
100
AcDbVisualStyle
  2
Thicken
 70
    13
177
     3
291
     1
 70
    58
 90
        2
176
     1
 90
        2
176
     1
 90
        0
176
     1
 90
        0
176
     1
 40
0.6
176
     1
 40
30.0
176
     1
 62
     7
420
 16777215
176
     1
 90
        1
176
     1
 90
        4
176
     1
 62
     7
176
     1
 62
   257
176
     1
 90
        1
176
     1
 90
        1
176
     1
 40
1.0
176
     1
 90
       12
176
     1
 62
     7
176
     1
 40
1.0
176
     1
 90
        1
176
     1
 90
        6
176
     1
 90
        2
176
     1
 62
     7
176
     1
 90
        5
176
     1
 90
        0
176
     1
 90
        0
176
     1
290
     0
176
     1
 90
        1
176
     1
 40
0.0
176
     1
 90
        0
176
     1
290
     0
176
     1
290
     1
176
     1
290
     1
176
     1
290
     0
176
     1
290
     0
176
     1
290
     0
176
     1
290
     0
176
     1
290
     0
176
     1
290
     0
176
     1
 90
       50
176
     1
 40
0.0
176
     1
 40
1.0
176
     1
 90
        0
176
     1
 62
    18
420
        0
176
     1
 90
       50
176
     1
 90
        3
176
     1
 62
     5
420
      255
176
     1
290
     0
176
     1
 90
       50
176
     1
 90
       50
176
     1
 90
       50
176
     1
290
     0
176
     1
 90
       50
176
     1
 62
   256
176
     0
 40
1.0
176
     0
 90
        2
176
     1
  1
strokes_ogs.tif
176
     1
290
     0
176
     1
 40
1.0
176
     1
 40
1.0
176
     1
  0
VISUALSTYLE
  5
30
102
{ACAD_REACTORS
330
2A
102
}
330
2A
100
AcDbVisualStyle
  2
Wireframe
 70
     5
177
     3
291
     0
 70
    58
 90
        0
176
     1
 90
        2
176
     1
 90
        0
176
     1
 90
        0
176
     1
 40
0.6
176
     1
 40
30.0
176
     1
 62
     7
420
 16777215
176
     1
 90
        1
176
     1
 90
        4
176
     1
 62
     7
176
     1
 62
   257
176
     1
 90
        1
176
     1
 90
        1
176
     1
 40
1.0
176
     1
 90
        0
176
     1
 62
   257
176
     1
 40
1.0
176
     1
 90
        1
176
     1
 90
        6
176
     1
 90
        2
176
     1
 62
     7
176
     1
 90
        3
176
     1
 90
        0
176
     1
 90
        0
176
     1
290
     0
176
     1
 90
        1
176
     1
 40
0.0
176
     1
 90
        0
176
     1
290
     0
176
     1
290
     1
176
     1
290
     1
176
     1
290
     0
176
     1
290
     0
176
     1
290
     0
176
     1
290
     0
176
     1
290
     0
176
     1
290
     0
176
     1
 90
       50
176
     1
 40
0.0
176
     1
 40
1.0
176
     1
 90
        0
176
     1
 62
    18
420
        0
176
     1
 90
       50
176
     1
 90
        3
176
     1
 62
     5
420
      255
176
     1
290
     0
176
     1
 90
       50
176
     1
 90
       50
176
     1
 90
       50
176
     1
290
     0
176
     1
 90
       50
176
     1
 62
   256
176
     0
 40
1.0
176
     0
 90
        2
176
     1
  1
strokes_ogs.tif
176
     1
290
     0
176
     1
 40
1.0
176
     1
 40
1.0
176
     1
  0
VISUALSTYLE
  5
40
102
{ACAD_REACTORS
330
2A
102
}
330
2A
100
AcDbVisualStyle
  2
X-Ray
 70
    25
177
     3
291
     0
 70
    58
 90
        2
176
     1
 90
        2
176
     1
 90
        1
176
     1
 90
        1
176
     1
 40
0.5
176
     1
 40
30.0
176
     1
 62
     7
420
 16777215
176
     1
 90
        1
176
     1
 90
        0
176
     1
 62
     7
176
     1
 62
   257
176
     1
 90
        1
176
     1
 90
        1
176
     1
 40
1.0
176
     1
 90
        8
176
     1
 62
     7
176
     1
 40
1.0
176
     1
 90
        1
176
     1
 90
        6
176
     1
 90
        2
176
     1
 62
     7
176
     1
 90
        3
176
     1
 90
        0
176
     1
 90
        0
176
     1
290
     0
176
     1
 90
       13
176
     1
 40
0.0
176
     1
 90
        0
176
     1
290
     0
176
     1
290
     1
176
     1
290
     1
176
     1
290
     0
176
     1
290
     0
176
     1
290
     0
176
     1
290
     0
176
     1
290
     0
176
     1
290
     0
176
     1
 90
       50
176
     1
 40
0.0
176
     1
 40
1.0
176
     1
 90
        0
176
     1
 62
    18
420
        0
176
     1
 90
       50
176
     1
 90
        3
176
     1
 62
     5
420
      255
176
     1
290
     0
176
     1
 90
       50
176
     1
 90
       50
176
     1
 90
       50
176
     1
290
     0
176
     1
 90
       50
176
     1
 62
   256
176
     0
 40
1.0
176
     0
 90
        2
176
     1
  1
strokes_ogs.tif
176
     1
290
     0
176
     1
 40
1.0
176
     1
 40
1.0
176
     1
  0
DICTIONARYVAR
  5
B6
102
{ACAD_REACTORS
330
B5
102
}
330
B5
100
DictionaryVariables
280
     0
  1
1:1
  0
DICTIONARYVAR
  5
BE
102
{ACAD_REACTORS
330
B5
102
}
330
B5
100
DictionaryVariables
280
     0
  1
3.500000
  0
DICTIONARYVAR
  5
BF
102
{ACAD_REACTORS
330
B5
102
}
330
B5
100
DictionaryVariables
280
     0
  1
acadiso.lin
  0
DICTIONARYVAR
  5
BB
102
{ACAD_REACTORS
330
B5
102
}
330
B5
100
DictionaryVariables
280
     0
  1
Standard
  0
DICTIONARYVAR
  5
BA
102
{ACAD_REACTORS
330
B5
102
}
330
B5
100
DictionaryVariables
280
     0
  1
Standard
  0
DICTIONARY
  5
B7
330
6A
100
AcDbDictionary
280
     1
281
     1
  3
ACAD_ROUNDTRIP_2008_TABLESTYLE_CELLSTYLEMAP
360
B8
  0
CELLSTYLEMAP
  5
B8
102
{ACAD_REACTORS
330
B7
102
}
330
B7
100
AcDbCellStyleMap
 90
        3
300
CELLSTYLE
  1
TABLEFORMAT_BEGIN
 90
        5
170
     1
 91
        0
 92
    32768
 62
   257
 93
        1
300
CONTENTFORMAT
  1
CONTENTFORMAT_BEGIN
 90
        0
 91
        0
 92
        4
 93
        0
300

 40
0.0
140
1.0
 94
        5
 62
     0
340
11
144
6.0
309
CONTENTFORMAT_END
171
     1
301
MARGIN
  1
CELLMARGIN_BEGIN
 40
1.5
 40
1.5
 40
1.5
 40
1.5
 40
1.5
 40
1.5
309
CELLMARGIN_END
 94
        6
 95
        1
302
GRIDFORMAT
  1
GRIDFORMAT_BEGIN
 90
        0
 91
        1
 62
     0
 92
       -2
340
14
 93
        0
 40
0.045
309
GRIDFORMAT_END
 95
        2
302
GRIDFORMAT
  1
GRIDFORMAT_BEGIN
 90
        0
 91
        1
 62
     0
 92
       -2
340
14
 93
        0
 40
0.045
309
GRIDFORMAT_END
 95
        4
302
GRIDFORMAT
  1
GRIDFORMAT_BEGIN
 90
        0
 91
        1
 62
     0
 92
       -2
340
14
 93
        0
 40
0.045
309
GRIDFORMAT_END
 95
        8
302
GRIDFORMAT
  1
GRIDFORMAT_BEGIN
 90
        0
 91
        1
 62
     0
 92
       -2
340
14
 93
        0
 40
0.045
309
GRIDFORMAT_END
 95
       16
302
GRIDFORMAT
  1
GRIDFORMAT_BEGIN
 90
        0
 91
        1
 62
     0
 92
       -2
340
14
 93
        0
 40
0.045
309
GRIDFORMAT_END
 95
       32
302
GRIDFORMAT
  1
GRIDFORMAT_BEGIN
 90
        0
 91
        1
 62
     0
 92
       -2
340
14
 93
        0
 40
0.045
309
GRIDFORMAT_END
309
TABLEFORMAT_END
  1
CELLSTYLE_BEGIN
 90
        1
 91
        1
300
_TITLE
309
CELLSTYLE_END
300
CELLSTYLE
  1
TABLEFORMAT_BEGIN
 90
        5
170
     1
 91
        0
 92
        0
 62
   257
 93
        1
300
CONTENTFORMAT
  1
CONTENTFORMAT_BEGIN
 90
        0
 91
        0
 92
        4
 93
        0
300

 40
0.0
140
1.0
 94
        5
 62
     0
340
11
144
4.5
309
CONTENTFORMAT_END
171
     1
301
MARGIN
  1
CELLMARGIN_BEGIN
 40
1.5
 40
1.5
 40
1.5
 40
1.5
 40
1.5
 40
1.5
309
CELLMARGIN_END
 94
        6
 95
        1
302
GRIDFORMAT
  1
GRIDFORMAT_BEGIN
 90
        0
 91
        1
 62
     0
 92
       -2
340
14
 93
        0
 40
0.045
309
GRIDFORMAT_END
 95
        2
302
GRIDFORMAT
  1
GRIDFORMAT_BEGIN
 90
        0
 91
        1
 62
     0
 92
       -2
340
14
 93
        0
 40
0.045
309
GRIDFORMAT_END
 95
        4
302
GRIDFORMAT
  1
GRIDFORMAT_BEGIN
 90
        0
 91
        1
 62
     0
 92
       -2
340
14
 93
        0
 40
0.045
309
GRIDFORMAT_END
 95
        8
302
GRIDFORMAT
  1
GRIDFORMAT_BEGIN
 90
        0
 91
        1
 62
     0
 92
       -2
340
14
 93
        0
 40
0.045
309
GRIDFORMAT_END
 95
       16
302
GRIDFORMAT
  1
GRIDFORMAT_BEGIN
 90
        0
 91
        1
 62
     0
 92
       -2
340
14
 93
        0
 40
0.045
309
GRIDFORMAT_END
 95
       32
302
GRIDFORMAT
  1
GRIDFORMAT_BEGIN
 90
        0
 91
        1
 62
     0
 92
       -2
340
14
 93
        0
 40
0.045
309
GRIDFORMAT_END
309
TABLEFORMAT_END
  1
CELLSTYLE_BEGIN
 90
        2
 91
        1
300
_HEADER
309
CELLSTYLE_END
300
CELLSTYLE
  1
TABLEFORMAT_BEGIN
 90
        5
170
     1
 91
        0
 92
        0
 62
   257
 93
        1
300
CONTENTFORMAT
  1
CONTENTFORMAT_BEGIN
 90
        0
 91
        0
 92
        4
 93
        0
300

 40
0.0
140
1.0
 94
        2
 62
     0
340
11
144
4.5
309
CONTENTFORMAT_END
171
     1
301
MARGIN
  1
CELLMARGIN_BEGIN
 40
1.5
 40
1.5
 40
1.5
 40
1.5
 40
1.5
 40
1.5
309
CELLMARGIN_END
 94
        6
 95
        1
302
GRIDFORMAT
  1
GRIDFORMAT_BEGIN
 90
        0
 91
        1
 62
     0
 92
       -2
340
14
 93
        0
 40
0.045
309
GRIDFORMAT_END
 95
        2
302
GRIDFORMAT
  1
GRIDFORMAT_BEGIN
 90
        0
 91
        1
 62
     0
 92
       -2
340
14
 93
        0
 40
0.045
309
GRIDFORMAT_END
 95
        4
302
GRIDFORMAT
  1
GRIDFORMAT_BEGIN
 90
        0
 91
        1
 62
     0
 92
       -2
340
14
 93
        0
 40
0.045
309
GRIDFORMAT_END
 95
        8
302
GRIDFORMAT
  1
GRIDFORMAT_BEGIN
 90
        0
 91
        1
 62
     0
 92
       -2
340
14
 93
        0
 40
0.045
309
GRIDFORMAT_END
 95
       16
302
GRIDFORMAT
  1
GRIDFORMAT_BEGIN
 90
        0
 91
        1
 62
     0
 92
       -2
340
14
 93
        0
 40
0.045
309
GRIDFORMAT_END
 95
       32
302
GRIDFORMAT
  1
GRIDFORMAT_BEGIN
 90
        0
 91
        1
 62
     0
 92
       -2
340
14
 93
        0
 40
0.045
309
GRIDFORMAT_END
309
TABLEFORMAT_END
  1
CELLSTYLE_BEGIN
 90
        3
 91
        2
300
_DATA
309
CELLSTYLE_END
  0
ENDSEC
  0
EOF
