  0
SECTION
  2
HEADER
  9
$ACADVER
  1
AC1027
  9
$ACADMAINTVER
 70
   105
  9
$DWGCODEPAGE
  3
ANSI_1252
  9
$REQUIREDVERSIONS
160
                 0
  9
$INSBASE
 10
0.0
 20
0.0
 30
0.0
  9
$EXTMIN
 10
1.000000000000000E+20
 20
1.000000000000000E+20
 30
1.000000000000000E+20
  9
$EXTMAX
 10
-1.000000000000000E+20
 20
-1.000000000000000E+20
 30
-1.000000000000000E+20
  9
$LIMMIN
 10
0.0
 20
0.0
  9
$LIMMAX
 10
420.0
 20
297.0
  9
$ORTHOMODE
 70
     0
  9
$REGENMODE
 70
     1
  9
$FILLMODE
 70
     1
  9
$QTEXTMODE
 70
     0
  9
$MIRRTEXT
 70
     1
  9
$LTSCALE
 40
1.0
  9
$ATTMODE
 70
     1
  9
$TEXTSIZE
 40
2.5
  9
$TRACEWID
 40
1.0
  9
$TEXTSTYLE
  7
Standard
  9
$CLAYER
  8
0
  9
$CELTYPE
  6
ByLayer
  9
$CECOLOR
 62
   256
  9
$CELTSCALE
 40
1.0
  9
$DISPSILH
 70
     0
  9
$DIMSCALE
 40
1.0
  9
$DIMASZ
 40
2.5
  9
$DIMEXO
 40
0.625
  9
$DIMDLI
 40
3.75
  9
$DIMRND
 40
0.0
  9
$DIMDLE
 40
0.0
  9
$DIMEXE
 40
1.25
  9
$DIMTP
 40
0.0
  9
$DIMTM
 40
0.0
  9
$DIMTXT
 40
2.5
  9
$DIMCEN
 40
2.5
  9
$DIMTSZ
 40
0.0
  9
$DIMTOL
 70
     0
  9
$DIMLIM
 70
     0
  9
$DIMTIH
 70
     0
  9
$DIMTOH
 70
     0
  9
$DIMSE1
 70
     0
  9
$DIMSE2
 70
     0
  9
$DIMTAD
 70
     1
  9
$DIMZIN
 70
     8
  9
$DIMBLK
  1

  9
$DIMASO
 70
     1
  9
$DIMSHO
 70
     1
  9
$DIMPOST
  1

  9
$DIMAPOST
  1

  9
$DIMALT
 70
     0
  9
$DIMALTD
 70
     3
  9
$DIMALTF
 40
0.03937007874016
  9
$DIMLFAC
 40
1.0
  9
$DIMTOFL
 70
     1
  9
$DIMTVP
 40
0.0
  9
$DIMTIX
 70
     0
  9
$DIMSOXD
 70
     0
  9
$DIMSAH
 70
     0
  9
$DIMBLK1
  1

  9
$DIMBLK2
  1

  9
$DIMSTYLE
  2
ISO-25
  9
$DIMCLRD
 70
     0
  9
$DIMCLRE
 70
     0
  9
$DIMCLRT
 70
     0
  9
$DIMTFAC
 40
1.0
  9
$DIMGAP
 40
0.625
  9
$DIMJUST
 70
     0
  9
$DIMSD1
 70
     0
  9
$DIMSD2
 70
     0
  9
$DIMTOLJ
 70
     0
  9
$DIMTZIN
 70
     8
  9
$DIMALTZ
 70
     0
  9
$DIMALTTZ
 70
     0
  9
$DIMUPT
 70
     0
  9
$DIMDEC
 70
     2
  9
$DIMTDEC
 70
     2
  9
$DIMALTU
 70
     2
  9
$DIMALTTD
 70
     3
  9
$DIMTXSTY
  7
Standard
  9
$DIMAUNIT
 70
     0
  9
$DIMADEC
 70
     0
  9
$DIMALTRND
 40
0.0
  9
$DIMAZIN
 70
     0
  9
$DIMDSEP
 70
    44
  9
$DIMATFIT
 70
     3
  9
$DIMFRAC
 70
     0
  9
$DIMLDRBLK
  1

  9
$DIMLUNIT
 70
     2
  9
$DIMLWD
 70
    -2
  9
$DIMLWE
 70
    -2
  9
$DIMTMOVE
 70
     0
  9
$DIMFXL
 40
1.0
  9
$DIMFXLON
 70
     0
  9
$DIMJOGANG
 40
0.7853981633974483
  9
$DIMTFILL
 70
     0
  9
$DIMTFILLCLR
 70
     0
  9
$DIMARCSYM
 70
     0
  9
$DIMLTYPE
  6

  9
$DIMLTEX1
  6

  9
$DIMLTEX2
  6

  9
$DIMTXTDIRECTION
 70
     0
  9
$LUNITS
 70
     2
  9
$LUPREC
 70
     4
  9
$SKETCHINC
 40
1.0
  9
$FILLETRAD
 40
10.0
  9
$AUNITS
 70
     0
  9
$AUPREC
 70
     0
  9
$MENU
  1
.
  9
$ELEVATION
 40
0.0
  9
$PELEVATION
 40
0.0
  9
$THICKNESS
 40
0.0
  9
$LIMCHECK
 70
     0
  9
$CHAMFERA
 40
0.0
  9
$CHAMFERB
 40
0.0
  9
$CHAMFERC
 40
0.0
  9
$CHAMFERD
 40
0.0
  9
$SKPOLY
 70
     0
  9
$TDCREATE
 40
2459684.332821724
  9
$TDUCREATE
 40
2459684.249488391
  9
$TDUPDATE
 40
2459684.332821748
  9
$TDUUPDATE
 40
2459684.249488414
  9
$TDINDWG
 40
0.0000000116
  9
$TDUSRTIMER
 40
0.0000000116
  9
$USRTIMER
 70
     1
  9
$ANGBASE
 50
0.0
  9
$ANGDIR
 70
     0
  9
$PDMODE
 70
     0
  9
$PDSIZE
 40
0.0
  9
$PLINEWID
 40
0.0
  9
$SPLFRAME
 70
     0
  9
$SPLINETYPE
 70
     6
  9
$SPLINESEGS
 70
     8
  9
$HANDSEED
  5
B0
  9
$SURFTAB1
 70
     6
  9
$SURFTAB2
 70
     6
  9
$SURFTYPE
 70
     6
  9
$SURFU
 70
     6
  9
$SURFV
 70
     6
  9
$UCSBASE
  2

  9
$UCSNAME
  2

  9
$UCSORG
 10
0.0
 20
0.0
 30
0.0
  9
$UCSXDIR
 10
1.0
 20
0.0
 30
0.0
  9
$UCSYDIR
 10
0.0
 20
1.0
 30
0.0
  9
$UCSORTHOREF
  2

  9
$UCSORTHOVIEW
 70
     0
  9
$UCSORGTOP
 10
0.0
 20
0.0
 30
0.0
  9
$UCSORGBOTTOM
 10
0.0
 20
0.0
 30
0.0
  9
$UCSORGLEFT
 10
0.0
 20
0.0
 30
0.0
  9
$UCSORGRIGHT
 10
0.0
 20
0.0
 30
0.0
  9
$UCSORGFRONT
 10
0.0
 20
0.0
 30
0.0
  9
$UCSORGBACK
 10
0.0
 20
0.0
 30
0.0
  9
$PUCSBASE
  2

  9
$PUCSNAME
  2

  9
$PUCSORG
 10
0.0
 20
0.0
 30
0.0
  9
$PUCSXDIR
 10
1.0
 20
0.0
 30
0.0
  9
$PUCSYDIR
 10
0.0
 20
1.0
 30
0.0
  9
$PUCSORTHOREF
  2

  9
$PUCSORTHOVIEW
 70
     0
  9
$PUCSORGTOP
 10
0.0
 20
0.0
 30
0.0
  9
$PUCSORGBOTTOM
 10
0.0
 20
0.0
 30
0.0
  9
$PUCSORGLEFT
 10
0.0
 20
0.0
 30
0.0
  9
$PUCSORGRIGHT
 10
0.0
 20
0.0
 30
0.0
  9
$PUCSORGFRONT
 10
0.0
 20
0.0
 30
0.0
  9
$PUCSORGBACK
 10
0.0
 20
0.0
 30
0.0
  9
$USERI1
 70
     0
  9
$USERI2
 70
     0
  9
$USERI3
 70
     0
  9
$USERI4
 70
     0
  9
$USERI5
 70
     0
  9
$USERR1
 40
0.0
  9
$USERR2
 40
0.0
  9
$USERR3
 40
0.0
  9
$USERR4
 40
0.0
  9
$USERR5
 40
0.0
  9
$WORLDVIEW
 70
     1
  9
$SHADEDGE
 70
     3
  9
$SHADEDIF
 70
    70
  9
$TILEMODE
 70
     1
  9
$MAXACTVP
 70
    64
  9
$PINSBASE
 10
0.0
 20
0.0
 30
0.0
  9
$PLIMCHECK
 70
     0
  9
$PEXTMIN
 10
1.000000000000000E+20
 20
1.000000000000000E+20
 30
1.000000000000000E+20
  9
$PEXTMAX
 10
-1.000000000000000E+20
 20
-1.000000000000000E+20
 30
-1.000000000000000E+20
  9
$PLIMMIN
 10
0.0
 20
0.0
  9
$PLIMMAX
 10
420.0
 20
297.0
  9
$UNITMODE
 70
     0
  9
$VISRETAIN
 70
     1
  9
$PLINEGEN
 70
     0
  9
$PSLTSCALE
 70
     1
  9
$TREEDEPTH
 70
  3020
  9
$CMLSTYLE
  2
Standard
  9
$CMLJUST
 70
     0
  9
$CMLSCALE
 40
20.0
  9
$PROXYGRAPHICS
 70
     1
  9
$MEASUREMENT
 70
     1
  9
$CELWEIGHT
370
    -1
  9
$ENDCAPS
280
     0
  9
$JOINSTYLE
280
     0
  9
$LWDISPLAY
290
     0
  9
$INSUNITS
 70
     4
  9
$HYPERLINKBASE
  1

  9
$STYLESHEET
  1

  9
$XEDIT
290
     1
  9
$CEPSNTYPE
380
     0
  9
$PSTYLEMODE
290
     1
  9
$FINGERPRINTGUID
  2
{c56378a7-d141-47e6-b052-2dd926ad2e6a}
  9
$VERSIONGUID
  2
{FAEB1C32-E019-11D5-929B-00C0DF256EC4}
  9
$EXTNAMES
290
     1
  9
$PSVPSCALE
 40
0.0
  9
$OLESTARTUP
290
     0
  9
$SORTENTS
280
   127
  9
$INDEXCTL
280
     0
  9
$HIDETEXT
280
     1
  9
$XCLIPFRAME
280
     2
  9
$HALOGAP
280
     0
  9
$OBSCOLOR
 70
   257
  9
$OBSLTYPE
280
     0
  9
$INTERSECTIONDISPLAY
280
     0
  9
$INTERSECTIONCOLOR
 70
   257
  9
$DIMASSOC
280
     2
  9
$PROJECTNAME
  1

  9
$CAMERADISPLAY
290
     0
  9
$LENSLENGTH
 40
50.0
  9
$CAMERAHEIGHT
 40
0.0
  9
$STEPSPERSEC
 40
2.0
  9
$STEPSIZE
 40
6.0
  9
$3DDWFPREC
 40
2.0
  9
$PSOLWIDTH
 40
5.0
  9
$PSOLHEIGHT
 40
80.0
  9
$LOFTANG1
 40
1.570796326794897
  9
$LOFTANG2
 40
1.570796326794897
  9
$LOFTMAG1
 40
0.0
  9
$LOFTMAG2
 40
0.0
  9
$LOFTPARAM
 70
     7
  9
$LOFTNORMALS
280
     1
  9
$LATITUDE
 40
37.795
  9
$LONGITUDE
 40
-122.394
  9
$NORTHDIRECTION
 40
0.0
  9
$TIMEZONE
 70
 -8000
  9
$LIGHTGLYPHDISPLAY
280
     1
  9
$TILEMODELIGHTSYNCH
280
     1
  9
$CMATERIAL
347
44
  9
$SOLIDHIST
280
     0
  9
$SHOWHIST
280
     1
  9
$DWFFRAME
280
     2
  9
$DGNFRAME
280
     2
  9
$REALWORLDSCALE
290
     1
  9
$INTERFERECOLOR
 62
   256
  9
$CSHADOW
280
     0
  9
$SHADOWPLANELOCATION
 40
0.0
  0
ENDSEC
  0
SECTION
  2
CLASSES
  0
CLASS
  1
ACDBDICTIONARYWDFLT
  2
AcDbDictionaryWithDefault
  3
ObjectDBX Classes
 90
        0
 91
        3
280
     0
281
     0
  0
CLASS
  1
VISUALSTYLE
  2
AcDbVisualStyle
  3
ObjectDBX Classes
 90
     4095
 91
        3
280
     0
281
     0
  0
CLASS
  1
MATERIAL
  2
AcDbMaterial
  3
ObjectDBX Classes
 90
     1153
 91
        3
280
     0
281
     0
  0
CLASS
  1
SCALE
  2
AcDbScale
  3
ObjectDBX Classes
 90
     1153
 91
        3
280
     0
281
     0
  0
CLASS
  1
TABLESTYLE
  2
AcDbTableStyle
  3
ObjectDBX Classes
 90
     4095
 91
        3
280
     0
281
     0
  0
CLASS
  1
MLEADERSTYLE
  2
AcDbMLeaderStyle
  3
ACDB_MLEADERSTYLE_CLASS
 90
     4095
 91
        3
280
     0
281
     0
  0
CLASS
  1
SUN
  2
AcDbSun
  3
SCENEOE
 90
     1153
 91
        3
280
     0
281
     0
  0
CLASS
  1
DICTIONARYVAR
  2
AcDbDictionaryVar
  3
ObjectDBX Classes
 90
        0
 91
        3
280
     0
281
     0
  0
CLASS
  1
CELLSTYLEMAP
  2
AcDbCellStyleMap
  3
ObjectDBX Classes
 90
     1152
 91
        3
280
     0
281
     0
  0
ENDSEC
  0
SECTION
  2
TABLES
  0
TABLE
  2
VPORT
  5
8
330
0
100
AcDbSymbolTable
 70
     1
  0
VPORT
  5
29
330
8
100
AcDbSymbolTableRecord
100
AcDbViewportTableRecord
  2
*Active
 70
     0
 10
0.0
 20
0.0
 11
1.0
 21
1.0
 12
0.0
 22
0.0
 13
0.0
 23
0.0
 14
10.0
 24
10.0
 15
10.0
 25
10.0
 16
0.0
 26
0.0
 36
1.0
 17
216.8330314529109
 27
207.5000758399295
 37
0.0
 40
72.450159263852
 41
4.864714855457364
 42
50.0
 43
0.0
 44
0.0
 50
0.0
 51
0.0
 71
     0
 72
   100
 73
     1
 74
     3
 75
     0
 76
     0
 77
     0
 78
     0
281
     0
 65
     1
110
0.0
120
0.0
130
0.0
111
1.0
121
0.0
131
0.0
112
0.0
122
1.0
132
0.0
 79
     0
146
0.0
348
2F
 60
     3
 61
     5
292
     1
282
     1
141
0.0
142
0.0
 63
   250
361
6D
  0
ENDTAB
  0
TABLE
  2
LTYPE
  5
5
330
0
100
AcDbSymbolTable
 70
     4
  0
LTYPE
  5
14
330
5
100
AcDbSymbolTableRecord
100
AcDbLinetypeTableRecord
  2
ByBlock
 70
     0
  3

 72
    65
 73
     0
 40
0.0
  0
LTYPE
  5
15
330
5
100
AcDbSymbolTableRecord
100
AcDbLinetypeTableRecord
  2
ByLayer
 70
     0
  3

 72
    65
 73
     0
 40
0.0
  0
LTYPE
  5
16
330
5
100
AcDbSymbolTableRecord
100
AcDbLinetypeTableRecord
  2
Continuous
 70
     0
  3
Solid line
 72
    65
 73
     0
 40
0.0
  0
LTYPE
  5
6E
330
5
100
AcDbSymbolTableRecord
100
AcDbLinetypeTableRecord
  2
Gestrichelt
 70
     0
  3

 72
    83
 73
     3
 40
10.0
 49
2.5
 74
     0
 49
-5.0
 74
     0
 49
2.5
 74
     0
  0
LTYPE
  5
6F
330
5
100
AcDbSymbolTableRecord
100
AcDbLinetypeTableRecord
  2
PHL_THICK
 70
     0
  3

 72
    83
 73
     0
 40
0.0
  0
LTYPE
  5
70
330
5
100
AcDbSymbolTableRecord
100
AcDbLinetypeTableRecord
  2
StrichPunkt
 70
     0
  3

 72
    83
 73
     5
 40
15.0
 49
5.0
 74
     0
 49
-2.5
 74
     0
 49
0.0
 74
     0
 49
-2.5
 74
     0
 49
5.0
 74
     0
  0
ENDTAB
  0
TABLE
  2
LAYER
  5
2
330
0
100
AcDbSymbolTable
 70
     6
  0
LAYER
  5
10
330
2
100
AcDbSymbolTableRecord
100
AcDbLayerTableRecord
  2
0
 70
     0
 62
     7
  6
Continuous
370
    -3
390
F
347
46
348
0
  0
LAYER
  5
72
330
2
100
AcDbSymbolTableRecord
100
AcDbLayerTableRecord
  2
FEIN
 70
     0
 62
     7
  6
Continuous
370
    -3
390
F
347
46
348
0
  0
LAYER
  5
73
330
2
100
AcDbSymbolTableRecord
100
AcDbLayerTableRecord
  2
Maße
 70
     0
 62
     7
  6
Continuous
370
    -3
390
F
347
46
348
0
  0
LAYER
  5
74
330
2
100
AcDbSymbolTableRecord
100
AcDbLayerTableRecord
  2
Hilfslinie
 70
     0
 62
     1
420
 16711680
  6
Continuous
370
    -3
390
F
347
46
348
0
  0
LAYER
  5
75
330
2
100
AcDbSymbolTableRecord
100
AcDbLayerTableRecord
  2
Schrift
 70
     0
 62
     7
  6
Continuous
370
    -3
390
F
347
46
348
0
  0
LAYER
  5
7A
330
2
100
AcDbSymbolTableRecord
100
AcDbLayerTableRecord
  2
Defpoints
 70
     0
 62
     7
  6
Continuous
290
     0
370
    -3
390
F
347
46
348
0
  0
ENDTAB
  0
TABLE
  2
STYLE
  5
3
330
0
100
AcDbSymbolTable
 70
     3
  0
STYLE
  5
11
330
3
100
AcDbSymbolTableRecord
100
AcDbTextStyleTableRecord
  2
Standard
 70
     0
 40
10.0
 41
1.0
 50
0.0
 71
     0
 42
2.5
  3
Simplex
  4

  0
STYLE
  5
71
330
3
100
AcDbSymbolTableRecord
100
AcDbTextStyleTableRecord
  2
Standard_Dim
 70
     0
 40
0.0
 41
1.0
 50
0.0
 71
     0
 42
2.5
  3
Simplex
  4

  0
STYLE
  5
76
330
3
100
AcDbSymbolTableRecord
100
AcDbTextStyleTableRecord
  2
Standard_Dim1
 70
     0
 40
0.0
 41
1.0
 50
0.0
 71
     0
 42
2.5
  3
Simplex
  4

  0
ENDTAB
  0
TABLE
  2
VIEW
  5
6
330
0
100
AcDbSymbolTable
 70
     0
  0
ENDTAB
  0
TABLE
  2
UCS
  5
7
330
0
100
AcDbSymbolTable
 70
     0
  0
ENDTAB
  0
TABLE
  2
APPID
  5
9
330
0
100
AcDbSymbolTable
 70
     1
  0
APPID
  5
12
330
9
100
AcDbSymbolTableRecord
100
AcDbRegAppTableRecord
  2
ACAD
 70
     0
  0
ENDTAB
  0
TABLE
  2
DIMSTYLE
  5
A
330
0
100
AcDbSymbolTable
 70
     3
100
AcDbDimStyleTable
  0
DIMSTYLE
105
27
330
A
100
AcDbSymbolTableRecord
100
AcDbDimStyleTableRecord
  2
ISO-25
 70
     0
 41
2.5
 42
0.625
 43
3.75
 44
1.25
 73
     0
 74
     0
 77
     1
 78
     8
140
2.5
141
2.5
143
0.03937007874016
147
0.625
171
     3
172
     1
178
     0
271
     2
272
     2
274
     3
278
    44
283
     0
284
     8
340
11
  0
DIMSTYLE
105
77
102
{ACAD_REACTORS
330
79
330
88
102
}
330
A
100
AcDbSymbolTableRecord
100
AcDbDimStyleTableRecord
  2
Standard
 70
     0
 41
2.0
 42
3.0
 44
0.0
 73
     0
 74
     0
 78
    12
140
3.0
147
0.45
176
     7
177
     7
271
     2
178
     7
179
     2
271
     2
272
     2
340
76
  0
DIMSTYLE
105
78
330
A
100
AcDbSymbolTableRecord
100
AcDbDimStyleTableRecord
  2
GROß
 70
     0
 41
8.0
 42
3.0
 44
0.0
 73
     0
 74
     0
 78
    12
140
6.0
147
0.8999999999999999
176
     7
177
     7
271
     1
178
     7
179
     2
271
     1
272
     1
274
     1
340
71
  0
ENDTAB
  0
TABLE
  2
BLOCK_RECORD
  5
1
330
0
100
AcDbSymbolTable
 70
     4
  0
BLOCK_RECORD
  5
1F
330
1
100
AcDbSymbolTableRecord
100
AcDbBlockTableRecord
  2
*Model_Space
340
22
 70
     0
280
     1
281
     0
  0
BLOCK_RECORD
  5
1B
330
1
100
AcDbSymbolTableRecord
100
AcDbBlockTableRecord
  2
*Paper_Space
340
1E
 70
     0
280
     1
281
     0
  0
BLOCK_RECORD
  5
23
330
1
100
AcDbSymbolTableRecord
100
AcDbBlockTableRecord
  2
*Paper_Space0
340
26
 70
     0
280
     1
281
     0
  0
BLOCK_RECORD
  5
7B
330
1
100
AcDbSymbolTableRecord
100
AcDbBlockTableRecord
  2
*D1
340
0
 70
     0
280
     1
281
     0
  0
BLOCK_RECORD
  5
89
330
1
100
AcDbSymbolTableRecord
100
AcDbBlockTableRecord
  2
*D2
340
0
 70
     0
280
     1
281
     0
  0
BLOCK_RECORD
  5
96
330
1
100
AcDbSymbolTableRecord
100
AcDbBlockTableRecord
  2
*U3
340
0
102
{BLKREFS
331
A3
102
}
 70
     0
280
     1
281
     0
  0
ENDTAB
  0
ENDSEC
  0
SECTION
  2
BLOCKS
  0
BLOCK
  5
20
330
1F
100
AcDbEntity
  8
0
100
AcDbBlockBegin
  2
*Model_Space
 70
     0
 10
0.0
 20
0.0
 30
0.0
  3
*Model_Space
  1

  0
ENDBLK
  5
21
330
1F
100
AcDbEntity
  8
0
100
AcDbBlockEnd
  0
BLOCK
  5
1C
330
1B
100
AcDbEntity
 67
     1
  8
0
100
AcDbBlockBegin
  2
*Paper_Space
 70
     0
 10
0.0
 20
0.0
 30
0.0
  3
*Paper_Space
  1

  0
ENDBLK
  5
1D
330
1B
100
AcDbEntity
 67
     1
  8
0
100
AcDbBlockEnd
  0
BLOCK
  5
24
330
23
100
AcDbEntity
  8
0
100
AcDbBlockBegin
  2
*Paper_Space0
 70
     0
 10
0.0
 20
0.0
 30
0.0
  3
*Paper_Space0
  1

  0
ENDBLK
  5
25
330
23
100
AcDbEntity
  8
0
100
AcDbBlockEnd
  0
BLOCK
  5
7C
330
7B
100
AcDbEntity
  8
0
100
AcDbBlockBegin
  2
*D1
 70
     1
 10
0.0
 20
0.0
 30
0.0
  3
*D1
  1

  0
LINE
  5
7E
330
7B
100
AcDbEntity
  8
Maße
 62
     7
370
    -2
100
AcDbLine
 10
378.6660629058365
 20
242.0
 30
0.0
 11
382.6660629058217
 21
242.0
 31
0.0
  0
LINE
  5
7F
330
7B
100
AcDbEntity
  8
Maße
 62
     7
370
    -2
100
AcDbLine
 10
378.6660629058365
 20
182.0
 30
0.0
 11
382.6660629058217
 21
182.0
 31
0.0
  0
LINE
  5
80
330
7B
100
AcDbEntity
  8
Maße
 62
     7
370
    -2
100
AcDbLine
 10
382.6660629058217
 20
240.0
 30
0.0
 11
382.6660629058217
 21
214.8071428571428
 31
0.0
  0
LINE
  5
81
330
7B
100
AcDbEntity
  8
Maße
 62
     7
370
    -2
100
AcDbLine
 10
382.6660629058217
 20
184.0
 30
0.0
 11
382.6660629058217
 21
209.1928571428572
 31
0.0
  0
SOLID
  5
82
330
7B
100
AcDbEntity
  8
Maße
 62
     7
100
AcDbTrace
 10
382.999396239155
 20
240.0
 30
0.0
 11
382.3327295724884
 21
240.0
 31
0.0
 12
382.6660629058217
 22
242.0
 32
0.0
 13
382.6660629058217
 23
242.0
 33
0.0
  0
SOLID
  5
83
330
7B
100
AcDbEntity
  8
Maße
 62
     7
100
AcDbTrace
 10
382.3327295724884
 20
184.0
 30
0.0
 11
382.999396239155
 21
184.0
 31
0.0
 12
382.6660629058217
 22
182.0
 32
0.0
 13
382.6660629058217
 23
182.0
 33
0.0
  0
MTEXT
  5
84
330
7B
100
AcDbEntity
  8
Maße
 62
     7
100
AcDbMText
 10
382.6660629058217
 20
212.0
 30
0.0
 40
3.0
 41
0.0
 46
0.0
 71
     5
 72
     1
  1
\A1;60
  7
Standard_Dim1
 11
0.0
 21
1.0
 31
0.0
 73
     1
 44
1.0
  0
POINT
  5
85
330
7B
100
AcDbEntity
  8
Defpoints
 62
     0
100
AcDbPoint
 10
375.6660629058365
 20
242.0
 30
0.0
  0
POINT
  5
86
330
7B
100
AcDbEntity
  8
Defpoints
 62
     0
100
AcDbPoint
 10
375.6660629058365
 20
182.0
 30
0.0
  0
POINT
  5
87
330
7B
100
AcDbEntity
  8
Defpoints
 62
     0
100
AcDbPoint
 10
382.6660629058217
 20
182.0
 30
0.0
  0
ENDBLK
  5
7D
330
7B
100
AcDbEntity
  8
0
100
AcDbBlockEnd
  0
BLOCK
  5
8A
330
89
100
AcDbEntity
  8
0
100
AcDbBlockBegin
  2
*D2
 70
     1
 10
0.0
 20
0.0
 30
0.0
  3
*D2
  1

  0
LINE
  5
8C
330
89
100
AcDbEntity
  8
Maße
 62
     7
370
    -2
100
AcDbLine
 10
197.6660629058215
 20
179.0
 30
0.0
 11
197.6660629058215
 21
175.0
 31
0.0
  0
LINE
  5
8D
330
89
100
AcDbEntity
  8
Maße
 62
     7
370
    -2
100
AcDbLine
 10
375.6660629058365
 20
179.0
 30
0.0
 11
375.6660629058365
 21
175.0
 31
0.0
  0
LINE
  5
8E
330
89
100
AcDbEntity
  8
Maße
 62
     7
370
    -2
100
AcDbLine
 10
199.6660629058215
 20
175.0
 30
0.0
 11
282.5732057629718
 21
175.0
 31
0.0
  0
LINE
  5
8F
330
89
100
AcDbEntity
  8
Maße
 62
     7
370
    -2
100
AcDbLine
 10
373.6660629058365
 20
175.0
 30
0.0
 11
290.7589200486862
 21
175.0
 31
0.0
  0
SOLID
  5
90
330
89
100
AcDbEntity
  8
Maße
 62
     7
100
AcDbTrace
 10
199.6660629058215
 20
175.3333333333333
 30
0.0
 11
199.6660629058215
 21
174.6666666666667
 31
0.0
 12
197.6660629058215
 22
175.0
 32
0.0
 13
197.6660629058215
 23
175.0
 33
0.0
  0
SOLID
  5
91
330
89
100
AcDbEntity
  8
Maße
 62
     7
100
AcDbTrace
 10
373.6660629058365
 20
174.6666666666667
 30
0.0
 11
373.6660629058365
 21
175.3333333333333
 31
0.0
 12
375.6660629058365
 22
175.0
 32
0.0
 13
375.6660629058365
 23
175.0
 33
0.0
  0
MTEXT
  5
92
330
89
100
AcDbEntity
  8
Maße
 62
     7
100
AcDbMText
 10
286.666062905829
 20
175.0
 30
0.0
 40
3.0
 41
0.0
 46
0.0
 71
     5
 72
     1
  1
\A1;178
  7
Standard_Dim1
 73
     1
 44
1.0
  0
POINT
  5
93
330
89
100
AcDbEntity
  8
Defpoints
 62
     0
100
AcDbPoint
 10
197.6660629058215
 20
182.0
 30
0.0
  0
POINT
  5
94
330
89
100
AcDbEntity
  8
Defpoints
 62
     0
100
AcDbPoint
 10
375.6660629058365
 20
182.0
 30
0.0
  0
POINT
  5
95
330
89
100
AcDbEntity
  8
Defpoints
 62
     0
100
AcDbPoint
 10
375.6660629058365
 20
175.0
 30
0.0
  0
ENDBLK
  5
8B
330
89
100
AcDbEntity
  8
0
100
AcDbBlockEnd
  0
BLOCK
  5
A1
330
96
100
AcDbEntity
  8
0
100
AcDbBlockBegin
  2
*U3
 70
     1
 10
0.0
 20
0.0
 30
0.0
  3
*U3
  1

  0
HATCH
  5
97
330
96
100
AcDbEntity
  8
FEIN
  6
Continuous
 62
   254
420
 13421772
100
AcDbHatch
 10
0.0
 20
0.0
 30
0.0
210
0.0
220
0.0
230
1.0
  2
SOLID
 70
     1
 71
     0
 91
        1
 92
       18
 72
     1
 73
     1
 93
       51
 10
522.0000000000002
 20
-901.1346137652448
 42
0.4142135623730659
 10
521.5000000000002
 20
-901.6346137652448
 42
0.0
 10
521.5000000000002
 20
-960.8346137652449
 42
0.4142135623729906
 10
521.8000000000002
 20
-961.1346137652448
 42
0.0
 10
523.2000000000002
 20
-961.1346137652448
 42
0.4142135623730739
 10
523.5000000000003
 20
-960.8346137652449
 42
0.0
 10
523.5000000000002
 20
-911.9346137652449
 42
-0.4142135623731785
 10
523.8000000000002
 20
-911.6346137652448
 42
0.0
 10
530.2000000000002
 20
-911.6346137652448
 42
0.4142135623730739
 10
530.5000000000003
 20
-911.3346137652449
 42
0.0
 10
530.5000000000002
 20
-910.3346137652447
 42
0.414213562373095
 10
530.2000000000003
 20
-910.0346137652448
 42
0.0
 10
527.3000000000002
 20
-910.0346137652448
 42
0.0
 10
527.3000000000002
 20
-909.9625193843809
 42
0.2679491924311136
 10
527.1500000000002
 20
-909.7027117632456
 42
0.0
 10
526.5186057606957
 20
-909.3381761292184
 42
0.8324306053759352
 10
526.0719900234031
 20
-909.8620221747674
 42
-0.5111996690700871
 10
523.8922413793106
 20
-908.9820553659116
 42
0.8857851797221282
 10
523.8922413793106
 20
-908.287172164578
 42
-0.5111996690700729
 10
526.0719900234031
 20
-907.4072053557223
 42
0.8324306053759243
 10
526.5186057606957
 20
-907.9310514012712
 42
0.0
 10
527.1563466520529
 20
-907.5628515259729
 42
0.2679491924310815
 10
527.3000000000001
 20
-907.3140366286508
 42
0.165701905336824
 10
527.240218979313
 20
-907.1386022972694
 42
0.0440455152396848
 10
526.9481818181821
 20
-906.8218819333913
 42
-0.21128950132351
 10
526.8500000000003
 20
-906.5999147703071
 42
0.0
 10
526.8500000000003
 20
-906.4346137652448
 42
-0.414213562373095
 10
527.1500000000002
 20
-906.1346137652448
 42
0.0
 10
545.2000000000002
 20
-906.1346137652448
 42
0.0
 10
545.5000000000002
 20
-905.8346137652449
 42
0.0
 10
545.8000000000003
 20
-906.1346137652448
 42
0.0
 10
564.0000000000002
 20
-906.1346137652448
 42
0.414213562373095
 10
564.5000000000002
 20
-905.6346137652448
 42
0.0
 10
564.5000000000002
 20
-904.6346137652448
 42
0.414213562373095
 10
564.0000000000002
 20
-904.1346137652449
 42
0.0
 10
541.3000000000002
 20
-904.1346137652448
 42
0.414213562373095
 10
541.1000000000004
 20
-904.3346137652447
 42
0.0
 10
541.1000000000003
 20
-904.4346137652449
 42
-0.4142135623730115
 10
540.8000000000002
 20
-904.7346137652447
 42
0.0
 10
539.8000000000002
 20
-904.7346137652447
 42
-0.414213562373095
 10
539.5000000000002
 20
-904.4346137652448
 42
0.0
 10
539.5000000000002
 20
-904.3346137652447
 42
0.414213562373147
 10
539.3000000000002
 20
-904.1346137652447
 42
0.0
 10
524.8000000000002
 20
-904.1346137652448
 42
-0.414213562373095
 10
524.5000000000002
 20
-903.8346137652447
 42
0.0
 10
524.5000000000002
 20
-902.6143682910861
 42
-0.3939104756150344
 10
524.779073057877
 20
-902.3150990760081
 42
0.0
 10
526.7209269421235
 20
-902.1793114246227
 42
0.3939104756149657
 10
527.0000000000005
 20
-901.8800422095446
 42
0.0
 10
527.0000000000002
 20
-901.6346137652448
 42
0.414213562373095
 10
526.5000000000002
 20
-901.1346137652448
 42
0.0
 97
        0
 75
     0
 76
     1
 98
        0
  0
LWPOLYLINE
  5
98
330
96
100
AcDbEntity
  8
FEIN
  6
Continuous
 62
     7
100
AcDbPolyline
 90
       51
 70
     1
 43
0.0
 10
522.0000000000002
 20
-901.1346137652448
 42
0.4142135623730659
 10
521.5000000000002
 20
-901.6346137652448
 10
521.5000000000002
 20
-960.8346137652449
 42
0.4142135623729906
 10
521.8000000000002
 20
-961.1346137652448
 10
523.2000000000002
 20
-961.1346137652448
 42
0.4142135623730739
 10
523.5000000000003
 20
-960.8346137652449
 10
523.5000000000002
 20
-911.9346137652449
 42
-0.4142135623731785
 10
523.8000000000002
 20
-911.6346137652448
 10
530.2000000000002
 20
-911.6346137652448
 42
0.4142135623730739
 10
530.5000000000003
 20
-911.3346137652449
 10
530.5000000000002
 20
-910.3346137652447
 42
0.414213562373095
 10
530.2000000000003
 20
-910.0346137652448
 10
527.3000000000002
 20
-910.0346137652448
 10
527.3000000000002
 20
-909.9625193843809
 42
0.2679491924311136
 10
527.1500000000002
 20
-909.7027117632456
 10
526.5186057606957
 20
-909.3381761292184
 42
0.8324306053759352
 10
526.0719900234031
 20
-909.8620221747674
 42
-0.5111996690700871
 10
523.8922413793106
 20
-908.9820553659116
 42
0.8857851797221282
 10
523.8922413793106
 20
-908.287172164578
 42
-0.5111996690700729
 10
526.0719900234031
 20
-907.4072053557223
 42
0.8324306053759243
 10
526.5186057606957
 20
-907.9310514012712
 10
527.1563466520529
 20
-907.5628515259729
 42
0.2679491924310815
 10
527.3000000000001
 20
-907.3140366286508
 42
0.165701905336824
 10
527.240218979313
 20
-907.1386022972694
 42
0.0440455152396848
 10
526.9481818181821
 20
-906.8218819333913
 42
-0.21128950132351
 10
526.8500000000003
 20
-906.5999147703071
 10
526.8500000000003
 20
-906.4346137652448
 42
-0.414213562373095
 10
527.1500000000002
 20
-906.1346137652448
 10
545.2000000000002
 20
-906.1346137652448
 10
545.5000000000002
 20
-905.8346137652449
 10
545.8000000000003
 20
-906.1346137652448
 10
564.0000000000002
 20
-906.1346137652448
 42
0.414213562373095
 10
564.5000000000002
 20
-905.6346137652448
 10
564.5000000000002
 20
-904.6346137652448
 42
0.414213562373095
 10
564.0000000000002
 20
-904.1346137652449
 10
541.3000000000002
 20
-904.1346137652448
 42
0.414213562373095
 10
541.1000000000004
 20
-904.3346137652447
 10
541.1000000000003
 20
-904.4346137652449
 42
-0.4142135623730115
 10
540.8000000000002
 20
-904.7346137652447
 10
539.8000000000002
 20
-904.7346137652447
 42
-0.414213562373095
 10
539.5000000000002
 20
-904.4346137652448
 10
539.5000000000002
 20
-904.3346137652447
 42
0.414213562373147
 10
539.3000000000002
 20
-904.1346137652447
 10
524.8000000000002
 20
-904.1346137652448
 42
-0.414213562373095
 10
524.5000000000002
 20
-903.8346137652447
 10
524.5000000000002
 20
-902.6143682910861
 42
-0.3939104756150344
 10
524.779073057877
 20
-902.3150990760081
 10
526.7209269421235
 20
-902.1793114246227
 42
0.3939104756149657
 10
527.0000000000005
 20
-901.8800422095446
 10
527.0000000000002
 20
-901.6346137652448
 42
0.414213562373095
 10
526.5000000000002
 20
-901.1346137652448
  0
HATCH
  5
99
330
96
100
AcDbEntity
  8
FEIN
 62
   254
420
 13421772
 48
0.3333333432674408
100
AcDbHatch
 10
0.0
 20
0.0
 30
0.0
210
0.0
220
0.0
230
1.0
  2
SOLID
 70
     1
 71
     0
 91
        1
 92
       18
 72
     1
 73
     1
 93
       89
 10
567.5000000000445
 20
-960.8346137652461
 42
0.0
 10
567.5000000000445
 20
-911.9346137652461
 42
-0.4142135623730835
 10
567.8000000000444
 20
-911.6346137652462
 42
0.0
 10
574.200000000045
 20
-911.6346137652462
 42
0.414213562373095
 10
574.5000000000449
 20
-911.3346137652461
 42
0.0
 10
574.5000000000449
 20
-910.3346137652461
 42
0.414213562373095
 10
574.200000000045
 20
-910.0346137652461
 42
0.0
 10
571.8000000000449
 20
-910.0346137652461
 42
-0.414213562373095
 10
571.5000000000449
 20
-909.7346137652462
 42
0.0
 10
571.5000000000449
 20
-909.3346137652475
 42
0.414213562373095
 10
571.200000000045
 20
-909.0346137652474
 42
0.0
 10
570.6000000000449
 20
-909.0346137652474
 42
0.414213562373095
 10
570.3000000000449
 20
-909.3346137652475
 42
0.0
 10
570.3000000000449
 20
-909.7346137652462
 42
-0.414213562373095
 10
570.0000000000449
 20
-910.0346137652461
 42
0.0
 10
567.8000000000444
 20
-910.0346137652461
 42
-0.414213562373095
 10
567.5000000000445
 20
-909.7346137652462
 42
0.0
 10
567.5000000000449
 20
-908.7346137652461
 42
-0.414213562373095
 10
568.5000000000449
 20
-907.7346137652461
 42
0.0
 10
569.8000000000449
 20
-907.7346137652461
 42
0.414213562373095
 10
570.3000000000449
 20
-907.2346137652461
 42
0.0
 10
570.3000000000449
 20
-906.6346137652462
 42
-0.414213562373095
 10
570.8000000000449
 20
-906.1346137652462
 42
0.0
 10
589.2000000000448
 20
-906.1346137652461
 42
0.0
 10
589.5000000000448
 20
-905.8346137652461
 42
0.0
 10
589.8000000000449
 20
-906.1346137652462
 42
0.0
 10
608.0000000000449
 20
-906.1346137652462
 42
0.414213562373095
 10
608.5000000000449
 20
-905.6346137652462
 42
0.0
 10
608.5000000000449
 20
-904.6346137652462
 42
0.414213562373095
 10
608.0000000000449
 20
-904.1346137652462
 42
0.0
 10
585.1000000000449
 20
-904.1346137652462
 42
0.0
 10
585.1000000000449
 20
-904.4346137652461
 42
-0.414213562373095
 10
584.8000000000449
 20
-904.7346137652461
 42
0.0
 10
583.8000000000449
 20
-904.7346137652461
 42
-0.414213562373095
 10
583.5000000000449
 20
-904.4346137652461
 42
0.0
 10
583.5000000000449
 20
-904.1346137652462
 42
0.0
 10
568.800000000045
 20
-904.1346137652462
 42
-0.414213562373095
 10
568.5000000000449
 20
-903.8346137652461
 42
0.0
 10
568.5000000000449
 20
-902.6346137652462
 42
-0.3939104756149434
 10
568.7790730579217
 20
-902.3353445501682
 42
0.0
 10
570.7209269421681
 20
-902.1995568987827
 42
0.3939104756149329
 10
571.0000000000449
 20
-901.9002876837047
 42
0.0
 10
571.0000000000449
 20
-901.6346137652462
 42
0.414213562373095
 10
570.5000000000449
 20
-901.1346137652462
 42
0.0
 10
545.8000000000449
 20
-901.1346137652461
 42
0.0
 10
545.5000000000449
 20
-901.4346137652461
 42
0.0
 10
545.2000000000448
 20
-901.1346137652461
 42
0.0
 10
529.2435826314982
 20
-901.1346137652467
 42
0.3306820039868417
 10
528.7649418416003
 20
-901.4900350868538
 42
-0.3114293452558363
 10
527.8774167355484
 20
-902.1984417803277
 42
0.0
 10
524.9651217631729
 20
-902.4020892831851
 42
0.3939104756149427
 10
524.5000000000449
 20
-902.900871308315
 42
0.0
 10
524.5000000000449
 20
-903.6346137652462
 42
0.4142135623731003
 10
525.0000000000449
 20
-904.1346137652462
 42
0.0
 10
539.550000000045
 20
-904.1346137652462
 42
0.0
 10
539.550000000045
 20
-904.3346137652461
 42
0.4142135623731065
 10
539.8500000000449
 20
-904.6346137652462
 42
0.0
 10
540.7500000000449
 20
-904.6346137652462
 42
0.4142135623731065
 10
541.050000000045
 20
-904.3346137652461
 42
0.0
 10
541.050000000045
 20
-904.1346137652462
 42
0.0
 10
564.200000000045
 20
-904.1346137652462
 42
-0.4142135623731065
 10
564.5000000000449
 20
-904.4346137652461
 42
0.0
 10
564.5000000000449
 20
-905.9338811958218
 42
-0.3939104756149436
 10
564.2209269421681
 20
-906.2331504108997
 42
0.0
 10
563.1651217631728
 20
-906.3069795011004
 42
0.3939104756149279
 10
562.700000000045
 20
-906.8057615262303
 42
0.0
 10
562.7000000000448
 20
-907.2346137652462
 42
0.414213562373095
 10
563.2000000000448
 20
-907.7346137652462
 42
0.0
 10
564.5000000000449
 20
-907.7346137652462
 42
-0.414213562373095
 10
565.5000000000449
 20
-908.7346137652462
 42
0.0
 10
565.5000000000454
 20
-909.7346137652462
 42
-0.414213562373095
 10
565.2000000000454
 20
-910.0346137652461
 42
0.0
 10
563.0000000000449
 20
-910.0346137652461
 42
-0.414213562373095
 10
562.700000000045
 20
-909.7346137652461
 42
0.0
 10
562.700000000045
 20
-909.3346137652475
 42
0.414213562373095
 10
562.4000000000449
 20
-909.0346137652474
 42
0.0
 10
561.800000000045
 20
-909.0346137652474
 42
0.414213562373095
 10
561.5000000000449
 20
-909.3346137652475
 42
0.0
 10
561.5000000000449
 20
-909.7346137652461
 42
-0.4142135623731065
 10
561.200000000045
 20
-910.0346137652461
 42
0.0
 10
558.800000000045
 20
-910.0346137652461
 42
0.414213562373095
 10
558.5000000000449
 20
-910.3346137652461
 42
0.0
 10
558.5000000000449
 20
-911.3346137652461
 42
0.414213562373095
 10
558.800000000045
 20
-911.6346137652462
 42
0.0
 10
565.2000000000454
 20
-911.6346137652462
 42
-0.414213562373095
 10
565.5000000000454
 20
-911.9346137652461
 42
0.0
 10
565.5000000000454
 20
-960.8346137652461
 42
0.414213562373095
 10
565.8000000000453
 20
-961.1346137652462
 42
0.0
 10
567.2000000000445
 20
-961.1346137652462
 42
0.414213562373095
 97
        0
 75
     0
 76
     1
 98
        0
  0
LWPOLYLINE
  5
9A
330
96
100
AcDbEntity
  8
FEIN
 48
0.3333333432674408
100
AcDbPolyline
 90
       89
 70
     1
 43
0.0
 10
567.5000000000445
 20
-960.8346137652461
 10
567.5000000000445
 20
-911.9346137652461
 42
-0.4142135623730835
 10
567.8000000000444
 20
-911.6346137652462
 10
574.200000000045
 20
-911.6346137652462
 42
0.414213562373095
 10
574.5000000000449
 20
-911.3346137652461
 10
574.5000000000449
 20
-910.3346137652461
 42
0.414213562373095
 10
574.200000000045
 20
-910.0346137652461
 10
571.8000000000449
 20
-910.0346137652461
 42
-0.414213562373095
 10
571.5000000000449
 20
-909.7346137652462
 10
571.5000000000449
 20
-909.3346137652475
 42
0.414213562373095
 10
571.200000000045
 20
-909.0346137652474
 10
570.6000000000449
 20
-909.0346137652474
 42
0.414213562373095
 10
570.3000000000449
 20
-909.3346137652475
 10
570.3000000000449
 20
-909.7346137652462
 42
-0.414213562373095
 10
570.0000000000449
 20
-910.0346137652461
 10
567.8000000000444
 20
-910.0346137652461
 42
-0.414213562373095
 10
567.5000000000445
 20
-909.7346137652462
 10
567.5000000000449
 20
-908.7346137652461
 42
-0.414213562373095
 10
568.5000000000449
 20
-907.7346137652461
 10
569.8000000000449
 20
-907.7346137652461
 42
0.414213562373095
 10
570.3000000000449
 20
-907.2346137652461
 10
570.3000000000449
 20
-906.6346137652462
 42
-0.414213562373095
 10
570.8000000000449
 20
-906.1346137652462
 10
589.2000000000448
 20
-906.1346137652461
 10
589.5000000000448
 20
-905.8346137652461
 10
589.8000000000449
 20
-906.1346137652462
 10
608.0000000000449
 20
-906.1346137652462
 42
0.414213562373095
 10
608.5000000000449
 20
-905.6346137652462
 10
608.5000000000449
 20
-904.6346137652462
 42
0.414213562373095
 10
608.0000000000449
 20
-904.1346137652462
 10
585.1000000000449
 20
-904.1346137652462
 10
585.1000000000449
 20
-904.4346137652461
 42
-0.414213562373095
 10
584.8000000000449
 20
-904.7346137652461
 10
583.8000000000449
 20
-904.7346137652461
 42
-0.414213562373095
 10
583.5000000000449
 20
-904.4346137652461
 10
583.5000000000449
 20
-904.1346137652462
 10
568.800000000045
 20
-904.1346137652462
 42
-0.414213562373095
 10
568.5000000000449
 20
-903.8346137652461
 10
568.5000000000449
 20
-902.6346137652462
 42
-0.3939104756149434
 10
568.7790730579217
 20
-902.3353445501682
 10
570.7209269421681
 20
-902.1995568987827
 42
0.3939104756149329
 10
571.0000000000449
 20
-901.9002876837047
 10
571.0000000000449
 20
-901.6346137652462
 42
0.414213562373095
 10
570.5000000000449
 20
-901.1346137652462
 10
545.8000000000449
 20
-901.1346137652461
 10
545.5000000000449
 20
-901.4346137652461
 10
545.2000000000448
 20
-901.1346137652461
 10
529.2435826314982
 20
-901.1346137652467
 42
0.3306820039868417
 10
528.7649418416003
 20
-901.4900350868538
 42
-0.3114293452558363
 10
527.8774167355484
 20
-902.1984417803277
 10
524.9651217631729
 20
-902.4020892831851
 42
0.3939104756149427
 10
524.5000000000449
 20
-902.900871308315
 10
524.5000000000449
 20
-903.6346137652462
 42
0.4142135623731003
 10
525.0000000000449
 20
-904.1346137652462
 10
539.550000000045
 20
-904.1346137652462
 10
539.550000000045
 20
-904.3346137652461
 42
0.4142135623731065
 10
539.8500000000449
 20
-904.6346137652462
 10
540.7500000000449
 20
-904.6346137652462
 42
0.4142135623731065
 10
541.050000000045
 20
-904.3346137652461
 10
541.050000000045
 20
-904.1346137652462
 10
564.200000000045
 20
-904.1346137652462
 42
-0.4142135623731065
 10
564.5000000000449
 20
-904.4346137652461
 10
564.5000000000449
 20
-905.9338811958218
 42
-0.3939104756149436
 10
564.2209269421681
 20
-906.2331504108997
 10
563.1651217631728
 20
-906.3069795011004
 42
0.3939104756149279
 10
562.700000000045
 20
-906.8057615262303
 10
562.7000000000448
 20
-907.2346137652462
 42
0.414213562373095
 10
563.2000000000448
 20
-907.7346137652462
 10
564.5000000000449
 20
-907.7346137652462
 42
-0.414213562373095
 10
565.5000000000449
 20
-908.7346137652462
 10
565.5000000000454
 20
-909.7346137652462
 42
-0.414213562373095
 10
565.2000000000454
 20
-910.0346137652461
 10
563.0000000000449
 20
-910.0346137652461
 42
-0.414213562373095
 10
562.700000000045
 20
-909.7346137652461
 10
562.700000000045
 20
-909.3346137652475
 42
0.414213562373095
 10
562.4000000000449
 20
-909.0346137652474
 10
561.800000000045
 20
-909.0346137652474
 42
0.414213562373095
 10
561.5000000000449
 20
-909.3346137652475
 10
561.5000000000449
 20
-909.7346137652461
 42
-0.4142135623731065
 10
561.200000000045
 20
-910.0346137652461
 10
558.800000000045
 20
-910.0346137652461
 42
0.414213562373095
 10
558.5000000000449
 20
-910.3346137652461
 10
558.5000000000449
 20
-911.3346137652461
 42
0.414213562373095
 10
558.800000000045
 20
-911.6346137652462
 10
565.2000000000454
 20
-911.6346137652462
 42
-0.414213562373095
 10
565.5000000000454
 20
-911.9346137652461
 10
565.5000000000454
 20
-960.8346137652461
 42
0.414213562373095
 10
565.8000000000453
 20
-961.1346137652462
 10
567.2000000000445
 20
-961.1346137652462
 42
0.414213562373095
  0
HATCH
  5
9B
330
96
100
AcDbEntity
  8
FEIN
 62
   254
420
 13421772
 48
0.3333333432674408
100
AcDbHatch
 10
0.0
 20
0.0
 30
0.0
210
0.0
220
0.0
230
1.0
  2
SOLID
 70
     1
 71
     0
 91
        1
 92
       18
 72
     1
 73
     1
 93
       89
 10
611.5000000000144
 20
-960.8346137652462
 42
0.0
 10
611.5000000000144
 20
-911.9346137652462
 42
-0.4142135623730835
 10
611.8000000000144
 20
-911.6346137652463
 42
0.0
 10
618.2000000000149
 20
-911.6346137652463
 42
0.414213562373095
 10
618.5000000000149
 20
-911.3346137652462
 42
0.0
 10
618.5000000000149
 20
-910.3346137652462
 42
0.414213562373095
 10
618.2000000000149
 20
-910.0346137652463
 42
0.0
 10
615.8000000000148
 20
-910.0346137652463
 42
-0.414213562373095
 10
615.5000000000149
 20
-909.7346137652463
 42
0.0
 10
615.5000000000149
 20
-909.3346137652476
 42
0.414213562373095
 10
615.2000000000149
 20
-909.0346137652475
 42
0.0
 10
614.6000000000149
 20
-909.0346137652475
 42
0.414213562373095
 10
614.3000000000148
 20
-909.3346137652476
 42
0.0
 10
614.3000000000148
 20
-909.7346137652462
 42
-0.414213562373095
 10
614.0000000000149
 20
-910.0346137652463
 42
0.0
 10
611.8000000000144
 20
-910.0346137652463
 42
-0.414213562373095
 10
611.5000000000144
 20
-909.7346137652462
 42
0.0
 10
611.5000000000149
 20
-908.7346137652462
 42
-0.414213562373095
 10
612.5000000000149
 20
-907.7346137652462
 42
0.0
 10
613.8000000000148
 20
-907.7346137652462
 42
0.414213562373095
 10
614.3000000000148
 20
-907.2346137652462
 42
0.0
 10
614.3000000000148
 20
-906.6346137652463
 42
-0.414213562373095
 10
614.8000000000148
 20
-906.1346137652463
 42
0.0
 10
633.2000000000148
 20
-906.1346137652462
 42
0.0
 10
633.5000000000148
 20
-905.8346137652462
 42
0.0
 10
633.8000000000148
 20
-906.1346137652463
 42
0.0
 10
652.0000000000149
 20
-906.1346137652463
 42
0.414213562373095
 10
652.5000000000149
 20
-905.6346137652463
 42
0.0
 10
652.5000000000149
 20
-904.6346137652463
 42
0.414213562373095
 10
652.0000000000149
 20
-904.1346137652463
 42
0.0
 10
629.1000000000149
 20
-904.1346137652463
 42
0.0
 10
629.1000000000149
 20
-904.4346137652462
 42
-0.414213562373095
 10
628.8000000000148
 20
-904.7346137652462
 42
0.0
 10
627.8000000000148
 20
-904.7346137652462
 42
-0.414213562373095
 10
627.5000000000149
 20
-904.4346137652462
 42
0.0
 10
627.5000000000149
 20
-904.1346137652463
 42
0.0
 10
612.800000000015
 20
-904.1346137652463
 42
-0.414213562373095
 10
612.5000000000149
 20
-903.8346137652462
 42
0.0
 10
612.5000000000149
 20
-902.6346137652463
 42
-0.3939104756149434
 10
612.7790730578917
 20
-902.3353445501683
 42
0.0
 10
614.7209269421381
 20
-902.1995568987828
 42
0.3939104756149329
 10
615.0000000000149
 20
-901.9002876837048
 42
0.0
 10
615.0000000000149
 20
-901.6346137652463
 42
0.414213562373095
 10
614.5000000000149
 20
-901.1346137652463
 42
0.0
 10
589.8000000000148
 20
-901.1346137652462
 42
0.0
 10
589.5000000000149
 20
-901.4346137652462
 42
0.0
 10
589.2000000000148
 20
-901.1346137652462
 42
0.0
 10
573.2435826314681
 20
-901.134613765247
 42
0.3306820039868417
 10
572.7649418415702
 20
-901.4900350868539
 42
-0.3114293452558363
 10
571.8774167355184
 20
-902.1984417803278
 42
0.0
 10
568.9651217631429
 20
-902.4020892831852
 42
0.3939104756149427
 10
568.5000000000149
 20
-902.9008713083151
 42
0.0
 10
568.5000000000149
 20
-903.6346137652463
 42
0.4142135623731003
 10
569.0000000000149
 20
-904.1346137652463
 42
0.0
 10
583.550000000015
 20
-904.1346137652463
 42
0.0
 10
583.550000000015
 20
-904.3346137652462
 42
0.4142135623731065
 10
583.8500000000149
 20
-904.6346137652463
 42
0.0
 10
584.7500000000149
 20
-904.6346137652463
 42
0.4142135623731065
 10
585.050000000015
 20
-904.3346137652462
 42
0.0
 10
585.050000000015
 20
-904.1346137652463
 42
0.0
 10
608.2000000000149
 20
-904.1346137652463
 42
-0.4142135623731065
 10
608.5000000000149
 20
-904.4346137652462
 42
0.0
 10
608.5000000000149
 20
-905.9338811958219
 42
-0.3939104756149436
 10
608.2209269421381
 20
-906.2331504108998
 42
0.0
 10
607.1651217631428
 20
-906.3069795011004
 42
0.3939104756149279
 10
606.7000000000149
 20
-906.8057615262304
 42
0.0
 10
606.7000000000148
 20
-907.2346137652463
 42
0.414213562373095
 10
607.2000000000148
 20
-907.7346137652463
 42
0.0
 10
608.5000000000149
 20
-907.7346137652463
 42
-0.414213562373095
 10
609.5000000000149
 20
-908.7346137652463
 42
0.0
 10
609.5000000000153
 20
-909.7346137652462
 42
-0.414213562373095
 10
609.2000000000154
 20
-910.0346137652463
 42
0.0
 10
607.0000000000149
 20
-910.0346137652463
 42
-0.414213562373095
 10
606.7000000000149
 20
-909.7346137652462
 42
0.0
 10
606.7000000000149
 20
-909.3346137652476
 42
0.414213562373095
 10
606.4000000000149
 20
-909.0346137652475
 42
0.0
 10
605.800000000015
 20
-909.0346137652475
 42
0.414213562373095
 10
605.5000000000149
 20
-909.3346137652476
 42
0.0
 10
605.5000000000149
 20
-909.7346137652462
 42
-0.4142135623731065
 10
605.2000000000149
 20
-910.0346137652463
 42
0.0
 10
602.800000000015
 20
-910.0346137652463
 42
0.414213562373095
 10
602.5000000000149
 20
-910.3346137652462
 42
0.0
 10
602.5000000000149
 20
-911.3346137652462
 42
0.414213562373095
 10
602.800000000015
 20
-911.6346137652463
 42
0.0
 10
609.2000000000154
 20
-911.6346137652463
 42
-0.414213562373095
 10
609.5000000000153
 20
-911.9346137652462
 42
0.0
 10
609.5000000000153
 20
-960.8346137652462
 42
0.414213562373095
 10
609.8000000000153
 20
-961.1346137652463
 42
0.0
 10
611.2000000000145
 20
-961.1346137652463
 42
0.414213562373095
 97
        0
 75
     0
 76
     1
 98
        0
  0
LWPOLYLINE
  5
9C
330
96
100
AcDbEntity
  8
FEIN
 48
0.3333333432674408
100
AcDbPolyline
 90
       89
 70
     1
 43
0.0
 10
611.5000000000144
 20
-960.8346137652462
 10
611.5000000000144
 20
-911.9346137652462
 42
-0.4142135623730835
 10
611.8000000000144
 20
-911.6346137652463
 10
618.2000000000149
 20
-911.6346137652463
 42
0.414213562373095
 10
618.5000000000149
 20
-911.3346137652462
 10
618.5000000000149
 20
-910.3346137652462
 42
0.414213562373095
 10
618.2000000000149
 20
-910.0346137652463
 10
615.8000000000148
 20
-910.0346137652463
 42
-0.414213562373095
 10
615.5000000000149
 20
-909.7346137652463
 10
615.5000000000149
 20
-909.3346137652476
 42
0.414213562373095
 10
615.2000000000149
 20
-909.0346137652475
 10
614.6000000000149
 20
-909.0346137652475
 42
0.414213562373095
 10
614.3000000000148
 20
-909.3346137652476
 10
614.3000000000148
 20
-909.7346137652462
 42
-0.414213562373095
 10
614.0000000000149
 20
-910.0346137652463
 10
611.8000000000144
 20
-910.0346137652463
 42
-0.414213562373095
 10
611.5000000000144
 20
-909.7346137652462
 10
611.5000000000149
 20
-908.7346137652462
 42
-0.414213562373095
 10
612.5000000000149
 20
-907.7346137652462
 10
613.8000000000148
 20
-907.7346137652462
 42
0.414213562373095
 10
614.3000000000148
 20
-907.2346137652462
 10
614.3000000000148
 20
-906.6346137652463
 42
-0.414213562373095
 10
614.8000000000148
 20
-906.1346137652463
 10
633.2000000000148
 20
-906.1346137652462
 10
633.5000000000148
 20
-905.8346137652462
 10
633.8000000000148
 20
-906.1346137652463
 10
652.0000000000149
 20
-906.1346137652463
 42
0.414213562373095
 10
652.5000000000149
 20
-905.6346137652463
 10
652.5000000000149
 20
-904.6346137652463
 42
0.414213562373095
 10
652.0000000000149
 20
-904.1346137652463
 10
629.1000000000149
 20
-904.1346137652463
 10
629.1000000000149
 20
-904.4346137652462
 42
-0.414213562373095
 10
628.8000000000148
 20
-904.7346137652462
 10
627.8000000000148
 20
-904.7346137652462
 42
-0.414213562373095
 10
627.5000000000149
 20
-904.4346137652462
 10
627.5000000000149
 20
-904.1346137652463
 10
612.800000000015
 20
-904.1346137652463
 42
-0.414213562373095
 10
612.5000000000149
 20
-903.8346137652462
 10
612.5000000000149
 20
-902.6346137652463
 42
-0.3939104756149434
 10
612.7790730578917
 20
-902.3353445501683
 10
614.7209269421381
 20
-902.1995568987828
 42
0.3939104756149329
 10
615.0000000000149
 20
-901.9002876837048
 10
615.0000000000149
 20
-901.6346137652463
 42
0.414213562373095
 10
614.5000000000149
 20
-901.1346137652463
 10
589.8000000000148
 20
-901.1346137652462
 10
589.5000000000149
 20
-901.4346137652462
 10
589.2000000000148
 20
-901.1346137652462
 10
573.2435826314681
 20
-901.134613765247
 42
0.3306820039868417
 10
572.7649418415702
 20
-901.4900350868539
 42
-0.3114293452558363
 10
571.8774167355184
 20
-902.1984417803278
 10
568.9651217631429
 20
-902.4020892831852
 42
0.3939104756149427
 10
568.5000000000149
 20
-902.9008713083151
 10
568.5000000000149
 20
-903.6346137652463
 42
0.4142135623731003
 10
569.0000000000149
 20
-904.1346137652463
 10
583.550000000015
 20
-904.1346137652463
 10
583.550000000015
 20
-904.3346137652462
 42
0.4142135623731065
 10
583.8500000000149
 20
-904.6346137652463
 10
584.7500000000149
 20
-904.6346137652463
 42
0.4142135623731065
 10
585.050000000015
 20
-904.3346137652462
 10
585.050000000015
 20
-904.1346137652463
 10
608.2000000000149
 20
-904.1346137652463
 42
-0.4142135623731065
 10
608.5000000000149
 20
-904.4346137652462
 10
608.5000000000149
 20
-905.9338811958219
 42
-0.3939104756149436
 10
608.2209269421381
 20
-906.2331504108998
 10
607.1651217631428
 20
-906.3069795011004
 42
0.3939104756149279
 10
606.7000000000149
 20
-906.8057615262304
 10
606.7000000000148
 20
-907.2346137652463
 42
0.414213562373095
 10
607.2000000000148
 20
-907.7346137652463
 10
608.5000000000149
 20
-907.7346137652463
 42
-0.414213562373095
 10
609.5000000000149
 20
-908.7346137652463
 10
609.5000000000153
 20
-909.7346137652462
 42
-0.414213562373095
 10
609.2000000000154
 20
-910.0346137652463
 10
607.0000000000149
 20
-910.0346137652463
 42
-0.414213562373095
 10
606.7000000000149
 20
-909.7346137652462
 10
606.7000000000149
 20
-909.3346137652476
 42
0.414213562373095
 10
606.4000000000149
 20
-909.0346137652475
 10
605.800000000015
 20
-909.0346137652475
 42
0.414213562373095
 10
605.5000000000149
 20
-909.3346137652476
 10
605.5000000000149
 20
-909.7346137652462
 42
-0.4142135623731065
 10
605.2000000000149
 20
-910.0346137652463
 10
602.800000000015
 20
-910.0346137652463
 42
0.414213562373095
 10
602.5000000000149
 20
-910.3346137652462
 10
602.5000000000149
 20
-911.3346137652462
 42
0.414213562373095
 10
602.800000000015
 20
-911.6346137652463
 10
609.2000000000154
 20
-911.6346137652463
 42
-0.414213562373095
 10
609.5000000000153
 20
-911.9346137652462
 10
609.5000000000153
 20
-960.8346137652462
 42
0.414213562373095
 10
609.8000000000153
 20
-961.1346137652463
 10
611.2000000000145
 20
-961.1346137652463
 42
0.414213562373095
  0
HATCH
  5
9D
330
96
100
AcDbEntity
  8
FEIN
 62
   254
420
 13421772
 48
0.3333333432674408
100
AcDbHatch
 10
0.0
 20
0.0
 30
0.0
210
0.0
220
0.0
230
1.0
  2
SOLID
 70
     1
 71
     0
 91
        1
 92
       18
 72
     1
 73
     1
 93
       89
 10
655.5000000000144
 20
-960.8346137652463
 42
0.0
 10
655.5000000000144
 20
-911.9346137652464
 42
-0.4142135623730835
 10
655.8000000000144
 20
-911.6346137652464
 42
0.0
 10
662.2000000000149
 20
-911.6346137652464
 42
0.414213562373095
 10
662.5000000000149
 20
-911.3346137652463
 42
0.0
 10
662.5000000000149
 20
-910.3346137652463
 42
0.414213562373095
 10
662.2000000000149
 20
-910.0346137652464
 42
0.0
 10
659.8000000000148
 20
-910.0346137652464
 42
-0.414213562373095
 10
659.5000000000149
 20
-909.7346137652464
 42
0.0
 10
659.5000000000149
 20
-909.3346137652477
 42
0.414213562373095
 10
659.2000000000149
 20
-909.0346137652476
 42
0.0
 10
658.6000000000149
 20
-909.0346137652476
 42
0.414213562373095
 10
658.3000000000148
 20
-909.3346137652477
 42
0.0
 10
658.3000000000148
 20
-909.7346137652464
 42
-0.414213562373095
 10
658.0000000000149
 20
-910.0346137652464
 42
0.0
 10
655.8000000000144
 20
-910.0346137652464
 42
-0.414213562373095
 10
655.5000000000144
 20
-909.7346137652464
 42
0.0
 10
655.5000000000149
 20
-908.7346137652463
 42
-0.414213562373095
 10
656.5000000000149
 20
-907.7346137652463
 42
0.0
 10
657.8000000000148
 20
-907.7346137652463
 42
0.414213562373095
 10
658.3000000000148
 20
-907.2346137652463
 42
0.0
 10
658.3000000000148
 20
-906.6346137652464
 42
-0.414213562373095
 10
658.8000000000148
 20
-906.1346137652464
 42
0.0
 10
677.2000000000148
 20
-906.1346137652463
 42
0.0
 10
677.5000000000148
 20
-905.8346137652463
 42
0.0
 10
677.8000000000148
 20
-906.1346137652464
 42
0.0
 10
696.0000000000149
 20
-906.1346137652464
 42
0.414213562373095
 10
696.5000000000149
 20
-905.6346137652464
 42
0.0
 10
696.5000000000149
 20
-904.6346137652464
 42
0.414213562373095
 10
696.0000000000149
 20
-904.1346137652464
 42
0.0
 10
673.1000000000149
 20
-904.1346137652464
 42
0.0
 10
673.1000000000149
 20
-904.4346137652464
 42
-0.414213562373095
 10
672.8000000000148
 20
-904.7346137652463
 42
0.0
 10
671.8000000000148
 20
-904.7346137652463
 42
-0.414213562373095
 10
671.5000000000149
 20
-904.4346137652464
 42
0.0
 10
671.5000000000149
 20
-904.1346137652464
 42
0.0
 10
656.800000000015
 20
-904.1346137652464
 42
-0.414213562373095
 10
656.5000000000149
 20
-903.8346137652463
 42
0.0
 10
656.5000000000149
 20
-902.6346137652464
 42
-0.3939104756149434
 10
656.7790730578917
 20
-902.3353445501684
 42
0.0
 10
658.7209269421381
 20
-902.1995568987829
 42
0.3939104756149329
 10
659.0000000000149
 20
-901.900287683705
 42
0.0
 10
659.0000000000149
 20
-901.6346137652464
 42
0.414213562373095
 10
658.5000000000149
 20
-901.1346137652464
 42
0.0
 10
633.8000000000148
 20
-901.1346137652463
 42
0.0
 10
633.5000000000149
 20
-901.4346137652464
 42
0.0
 10
633.2000000000148
 20
-901.1346137652463
 42
0.0
 10
617.2435826314681
 20
-901.134613765247
 42
0.3306820039868417
 10
616.7649418415702
 20
-901.490035086854
 42
-0.3114293452558363
 10
615.8774167355184
 20
-902.1984417803279
 42
0.0
 10
612.9651217631429
 20
-902.4020892831853
 42
0.3939104756149427
 10
612.5000000000149
 20
-902.9008713083152
 42
0.0
 10
612.5000000000149
 20
-903.6346137652464
 42
0.4142135623731003
 10
613.0000000000149
 20
-904.1346137652464
 42
0.0
 10
627.550000000015
 20
-904.1346137652464
 42
0.0
 10
627.550000000015
 20
-904.3346137652463
 42
0.4142135623731065
 10
627.8500000000149
 20
-904.6346137652464
 42
0.0
 10
628.7500000000149
 20
-904.6346137652464
 42
0.4142135623731065
 10
629.050000000015
 20
-904.3346137652463
 42
0.0
 10
629.050000000015
 20
-904.1346137652464
 42
0.0
 10
652.2000000000149
 20
-904.1346137652464
 42
-0.4142135623731065
 10
652.5000000000149
 20
-904.4346137652464
 42
0.0
 10
652.5000000000149
 20
-905.933881195822
 42
-0.3939104756149436
 10
652.2209269421381
 20
-906.2331504109
 42
0.0
 10
651.1651217631428
 20
-906.3069795011006
 42
0.3939104756149279
 10
650.7000000000149
 20
-906.8057615262305
 42
0.0
 10
650.7000000000148
 20
-907.2346137652464
 42
0.414213562373095
 10
651.2000000000148
 20
-907.7346137652464
 42
0.0
 10
652.5000000000149
 20
-907.7346137652464
 42
-0.414213562373095
 10
653.5000000000149
 20
-908.7346137652464
 42
0.0
 10
653.5000000000153
 20
-909.7346137652464
 42
-0.414213562373095
 10
653.2000000000154
 20
-910.0346137652464
 42
0.0
 10
651.0000000000149
 20
-910.0346137652464
 42
-0.414213562373095
 10
650.7000000000149
 20
-909.7346137652463
 42
0.0
 10
650.7000000000149
 20
-909.3346137652477
 42
0.414213562373095
 10
650.4000000000149
 20
-909.0346137652476
 42
0.0
 10
649.800000000015
 20
-909.0346137652476
 42
0.414213562373095
 10
649.5000000000149
 20
-909.3346137652477
 42
0.0
 10
649.5000000000149
 20
-909.7346137652463
 42
-0.4142135623731065
 10
649.2000000000149
 20
-910.0346137652464
 42
0.0
 10
646.800000000015
 20
-910.0346137652464
 42
0.414213562373095
 10
646.5000000000149
 20
-910.3346137652463
 42
0.0
 10
646.5000000000149
 20
-911.3346137652463
 42
0.414213562373095
 10
646.800000000015
 20
-911.6346137652464
 42
0.0
 10
653.2000000000154
 20
-911.6346137652464
 42
-0.414213562373095
 10
653.5000000000153
 20
-911.9346137652464
 42
0.0
 10
653.5000000000153
 20
-960.8346137652463
 42
0.414213562373095
 10
653.8000000000153
 20
-961.1346137652464
 42
0.0
 10
655.2000000000145
 20
-961.1346137652464
 42
0.414213562373095
 97
        0
 75
     0
 76
     1
 98
        0
  0
LWPOLYLINE
  5
9E
330
96
100
AcDbEntity
  8
FEIN
 48
0.3333333432674408
100
AcDbPolyline
 90
       89
 70
     1
 43
0.0
 10
655.5000000000144
 20
-960.8346137652463
 10
655.5000000000144
 20
-911.9346137652464
 42
-0.4142135623730835
 10
655.8000000000144
 20
-911.6346137652464
 10
662.2000000000149
 20
-911.6346137652464
 42
0.414213562373095
 10
662.5000000000149
 20
-911.3346137652463
 10
662.5000000000149
 20
-910.3346137652463
 42
0.414213562373095
 10
662.2000000000149
 20
-910.0346137652464
 10
659.8000000000148
 20
-910.0346137652464
 42
-0.414213562373095
 10
659.5000000000149
 20
-909.7346137652464
 10
659.5000000000149
 20
-909.3346137652477
 42
0.414213562373095
 10
659.2000000000149
 20
-909.0346137652476
 10
658.6000000000149
 20
-909.0346137652476
 42
0.414213562373095
 10
658.3000000000148
 20
-909.3346137652477
 10
658.3000000000148
 20
-909.7346137652464
 42
-0.414213562373095
 10
658.0000000000149
 20
-910.0346137652464
 10
655.8000000000144
 20
-910.0346137652464
 42
-0.414213562373095
 10
655.5000000000144
 20
-909.7346137652464
 10
655.5000000000149
 20
-908.7346137652463
 42
-0.414213562373095
 10
656.5000000000149
 20
-907.7346137652463
 10
657.8000000000148
 20
-907.7346137652463
 42
0.414213562373095
 10
658.3000000000148
 20
-907.2346137652463
 10
658.3000000000148
 20
-906.6346137652464
 42
-0.414213562373095
 10
658.8000000000148
 20
-906.1346137652464
 10
677.2000000000148
 20
-906.1346137652463
 10
677.5000000000148
 20
-905.8346137652463
 10
677.8000000000148
 20
-906.1346137652464
 10
696.0000000000149
 20
-906.1346137652464
 42
0.414213562373095
 10
696.5000000000149
 20
-905.6346137652464
 10
696.5000000000149
 20
-904.6346137652464
 42
0.414213562373095
 10
696.0000000000149
 20
-904.1346137652464
 10
673.1000000000149
 20
-904.1346137652464
 10
673.1000000000149
 20
-904.4346137652464
 42
-0.414213562373095
 10
672.8000000000148
 20
-904.7346137652463
 10
671.8000000000148
 20
-904.7346137652463
 42
-0.414213562373095
 10
671.5000000000149
 20
-904.4346137652464
 10
671.5000000000149
 20
-904.1346137652464
 10
656.800000000015
 20
-904.1346137652464
 42
-0.414213562373095
 10
656.5000000000149
 20
-903.8346137652463
 10
656.5000000000149
 20
-902.6346137652464
 42
-0.3939104756149434
 10
656.7790730578917
 20
-902.3353445501684
 10
658.7209269421381
 20
-902.1995568987829
 42
0.3939104756149329
 10
659.0000000000149
 20
-901.900287683705
 10
659.0000000000149
 20
-901.6346137652464
 42
0.414213562373095
 10
658.5000000000149
 20
-901.1346137652464
 10
633.8000000000148
 20
-901.1346137652463
 10
633.5000000000149
 20
-901.4346137652464
 10
633.2000000000148
 20
-901.1346137652463
 10
617.2435826314681
 20
-901.134613765247
 42
0.3306820039868417
 10
616.7649418415702
 20
-901.490035086854
 42
-0.3114293452558363
 10
615.8774167355184
 20
-902.1984417803279
 10
612.9651217631429
 20
-902.4020892831853
 42
0.3939104756149427
 10
612.5000000000149
 20
-902.9008713083152
 10
612.5000000000149
 20
-903.6346137652464
 42
0.4142135623731003
 10
613.0000000000149
 20
-904.1346137652464
 10
627.550000000015
 20
-904.1346137652464
 10
627.550000000015
 20
-904.3346137652463
 42
0.4142135623731065
 10
627.8500000000149
 20
-904.6346137652464
 10
628.7500000000149
 20
-904.6346137652464
 42
0.4142135623731065
 10
629.050000000015
 20
-904.3346137652463
 10
629.050000000015
 20
-904.1346137652464
 10
652.2000000000149
 20
-904.1346137652464
 42
-0.4142135623731065
 10
652.5000000000149
 20
-904.4346137652464
 10
652.5000000000149
 20
-905.933881195822
 42
-0.3939104756149436
 10
652.2209269421381
 20
-906.2331504109
 10
651.1651217631428
 20
-906.3069795011006
 42
0.3939104756149279
 10
650.7000000000149
 20
-906.8057615262305
 10
650.7000000000148
 20
-907.2346137652464
 42
0.414213562373095
 10
651.2000000000148
 20
-907.7346137652464
 10
652.5000000000149
 20
-907.7346137652464
 42
-0.414213562373095
 10
653.5000000000149
 20
-908.7346137652464
 10
653.5000000000153
 20
-909.7346137652464
 42
-0.414213562373095
 10
653.2000000000154
 20
-910.0346137652464
 10
651.0000000000149
 20
-910.0346137652464
 42
-0.414213562373095
 10
650.7000000000149
 20
-909.7346137652463
 10
650.7000000000149
 20
-909.3346137652477
 42
0.414213562373095
 10
650.4000000000149
 20
-909.0346137652476
 10
649.800000000015
 20
-909.0346137652476
 42
0.414213562373095
 10
649.5000000000149
 20
-909.3346137652477
 10
649.5000000000149
 20
-909.7346137652463
 42
-0.4142135623731065
 10
649.2000000000149
 20
-910.0346137652464
 10
646.800000000015
 20
-910.0346137652464
 42
0.414213562373095
 10
646.5000000000149
 20
-910.3346137652463
 10
646.5000000000149
 20
-911.3346137652463
 42
0.414213562373095
 10
646.800000000015
 20
-911.6346137652464
 10
653.2000000000154
 20
-911.6346137652464
 42
-0.414213562373095
 10
653.5000000000153
 20
-911.9346137652464
 10
653.5000000000153
 20
-960.8346137652463
 42
0.414213562373095
 10
653.8000000000153
 20
-961.1346137652464
 10
655.2000000000145
 20
-961.1346137652464
 42
0.414213562373095
  0
HATCH
  5
9F
330
96
100
AcDbEntity
  8
FEIN
 62
   254
420
 13421772
 48
0.5
100
AcDbHatch
 10
0.0
 20
0.0
 30
0.0
210
0.0
220
0.0
230
1.0
  2
SOLID
 70
     1
 71
     0
 91
        1
 92
       18
 72
     1
 73
     1
 93
       60
 10
696.4872265965466
 20
-904.4346137652462
 42
0.0
 10
696.4872265965466
 20
-905.9348431652974
 42
-0.3939104756149457
 10
696.2081535386699
 20
-906.2341123803753
 42
0.0
 10
694.938018301626
 20
-906.3229288882388
 42
0.1473837716506253
 10
693.7961388857229
 20
-907.1563123141892
 42
0.4187904109049907
 10
693.9031664265314
 20
-907.570260588908
 42
0.0
 10
694.431183103882
 20
-907.8758062413281
 42
0.3589714747272201
 10
694.8076124135808
 20
-907.8132400466321
 42
-0.0141413640309499
 10
694.8555444062239
 20
-907.7612787193419
 42
0.1730356836663313
 10
694.9397139985301
 20
-907.5780830834165
 42
-0.2611842625529236
 10
695.105131959433
 20
-907.3357530301134
 42
-0.2350226135546912
 10
696.3969104964233
 20
-907.3367692058309
 42
-0.2611842625528785
 10
696.5619469956639
 20
-907.5793592106571
 42
0.1730356836662915
 10
696.6458282628137
 20
-907.7626870435481
 42
-0.0133900538511248
 10
696.6912111452289
 20
-907.811891978875
 42
0.1730356836675285
 10
696.8671734857338
 20
-907.9102912472448
 42
-0.2611842625546094
 10
697.0956569300049
 20
-908.0943626252972
 42
-0.1941495908692867
 10
697.0936544594293
 20
-909.1795241861726
 42
-0.2611842625545828
 10
696.8644932322594
 20
-909.362751063257
 42
0.1730356836675638
 10
696.6881689350431
 20
-909.4605002499692
 42
-0.0120132907910476
 10
696.6474095164983
 20
-909.5046092911649
 42
0.1730356836663207
 10
696.5638612239992
 20
-909.6880891105229
 42
-0.2611842625529862
 10
696.39926542516
 20
-909.9309783435647
 42
-0.2494948871031386
 10
695.037410174096
 20
-909.897282634794
 42
-0.1938950085994804
 10
694.9393758349282
 20
-909.6956036277896
 42
0.1776403097576467
 10
694.8549181017449
 20
-909.507003428469
 42
-0.0140263259722257
 10
694.8074010060293
 20
-909.4554414618242
 42
0.358487266049958
 10
694.4314336824752
 20
-909.3925210068579
 42
0.0
 10
693.9036791504886
 20
-909.6965262825627
 42
0.2682136055308738
 10
693.7534227154862
 20
-909.9564817878743
 42
0.0
 10
693.7534227154862
 20
-910.0344620853859
 42
0.0
 10
690.800000000015
 20
-910.0344620853859
 42
0.4142135623730778
 10
690.500000000015
 20
-910.3344620853859
 42
0.0
 10
690.500000000015
 20
-911.3344620853859
 42
0.414213562373095
 10
690.800000000015
 20
-911.6344620853858
 42
0.0
 10
697.2000000000149
 20
-911.6344620853858
 42
-0.4142135623731037
 10
697.500000000015
 20
-911.9344620853859
 42
0.0
 10
697.500000000015
 20
-960.8346137652463
 42
0.414213562373095
 10
697.800000000015
 20
-961.1346137652463
 42
0.0
 10
699.2000000000149
 20
-961.1346137652463
 42
0.4142135623731125
 10
699.500000000015
 20
-960.8346137652463
 42
0.0
 10
699.500000000015
 20
-901.6344620853858
 42
0.414213562373095
 10
699.000000000015
 20
-901.1344620853858
 42
0.0
 10
677.800000000015
 20
-901.1344620853858
 42
0.0
 10
677.500000000015
 20
-901.4344620853859
 42
0.0
 10
677.200000000015
 20
-901.1344620853858
 42
0.0
 10
661.2094843660215
 20
-901.1344620853858
 42
0.3311822983355778
 10
660.7305835856484
 20
-901.4907469415834
 42
-0.3119240601426924
 10
659.8425384986466
 20
-902.2008807042386
 42
0.0
 10
656.9651217631429
 20
-902.4020892831853
 42
0.3939104756149434
 10
656.500000000015
 20
-902.9008713083152
 42
0.0
 10
656.500000000015
 20
-903.6346137652463
 42
0.414213562373095
 10
657.000000000015
 20
-904.1346137652463
 42
0.0
 10
671.550000000015
 20
-904.1346137652463
 42
0.0
 10
671.550000000015
 20
-904.3346137652463
 42
0.4142135623731036
 10
671.8500000000149
 20
-904.6346137652463
 42
0.0
 10
672.750000000015
 20
-904.6346137652463
 42
0.4142135623731039
 10
673.050000000015
 20
-904.3346137652463
 42
0.0
 10
673.050000000015
 20
-904.1346137652463
 42
0.0
 10
696.1872265965467
 20
-904.1346137652463
 42
-0.4142135623730863
 97
        0
 75
     0
 76
     1
 98
        0
  0
LWPOLYLINE
  5
A0
330
96
100
AcDbEntity
  8
FEIN
 48
0.5
100
AcDbPolyline
 90
       60
 70
     1
 43
0.0
 10
696.4872265965466
 20
-904.4346137652462
 10
696.4872265965466
 20
-905.9348431652974
 42
-0.3939104756149457
 10
696.2081535386699
 20
-906.2341123803753
 10
694.938018301626
 20
-906.3229288882388
 42
0.1473837716506253
 10
693.7961388857229
 20
-907.1563123141892
 42
0.4187904109049907
 10
693.9031664265314
 20
-907.570260588908
 10
694.431183103882
 20
-907.8758062413281
 42
0.3589714747272201
 10
694.8076124135808
 20
-907.8132400466321
 42
-0.0141413640309499
 10
694.8555444062239
 20
-907.7612787193419
 42
0.1730356836663313
 10
694.9397139985301
 20
-907.5780830834165
 42
-0.2611842625529236
 10
695.105131959433
 20
-907.3357530301134
 42
-0.2350226135546912
 10
696.3969104964233
 20
-907.3367692058309
 42
-0.2611842625528785
 10
696.5619469956639
 20
-907.5793592106571
 42
0.1730356836662915
 10
696.6458282628137
 20
-907.7626870435481
 42
-0.0133900538511248
 10
696.6912111452289
 20
-907.811891978875
 42
0.1730356836675285
 10
696.8671734857338
 20
-907.9102912472448
 42
-0.2611842625546094
 10
697.0956569300049
 20
-908.0943626252972
 42
-0.1941495908692867
 10
697.0936544594293
 20
-909.1795241861726
 42
-0.2611842625545828
 10
696.8644932322594
 20
-909.362751063257
 42
0.1730356836675638
 10
696.6881689350431
 20
-909.4605002499692
 42
-0.0120132907910476
 10
696.6474095164983
 20
-909.5046092911649
 42
0.1730356836663207
 10
696.5638612239992
 20
-909.6880891105229
 42
-0.2611842625529862
 10
696.39926542516
 20
-909.9309783435647
 42
-0.2494948871031386
 10
695.037410174096
 20
-909.897282634794
 42
-0.1938950085994804
 10
694.9393758349282
 20
-909.6956036277896
 42
0.1776403097576467
 10
694.8549181017449
 20
-909.507003428469
 42
-0.0140263259722257
 10
694.8074010060293
 20
-909.4554414618242
 42
0.358487266049958
 10
694.4314336824752
 20
-909.3925210068579
 10
693.9036791504886
 20
-909.6965262825627
 42
0.2682136055308738
 10
693.7534227154862
 20
-909.9564817878743
 10
693.7534227154862
 20
-910.0344620853859
 10
690.800000000015
 20
-910.0344620853859
 42
0.4142135623730778
 10
690.500000000015
 20
-910.3344620853859
 10
690.500000000015
 20
-911.3344620853859
 42
0.414213562373095
 10
690.800000000015
 20
-911.6344620853858
 10
697.2000000000149
 20
-911.6344620853858
 42
-0.4142135623731037
 10
697.500000000015
 20
-911.9344620853859
 10
697.500000000015
 20
-960.8346137652463
 42
0.414213562373095
 10
697.800000000015
 20
-961.1346137652463
 10
699.2000000000149
 20
-961.1346137652463
 42
0.4142135623731125
 10
699.500000000015
 20
-960.8346137652463
 10
699.500000000015
 20
-901.6344620853858
 42
0.414213562373095
 10
699.000000000015
 20
-901.1344620853858
 10
677.800000000015
 20
-901.1344620853858
 10
677.500000000015
 20
-901.4344620853859
 10
677.200000000015
 20
-901.1344620853858
 10
661.2094843660215
 20
-901.1344620853858
 42
0.3311822983355778
 10
660.7305835856484
 20
-901.4907469415834
 42
-0.3119240601426924
 10
659.8425384986466
 20
-902.2008807042386
 10
656.9651217631429
 20
-902.4020892831853
 42
0.3939104756149434
 10
656.500000000015
 20
-902.9008713083152
 10
656.500000000015
 20
-903.6346137652463
 42
0.414213562373095
 10
657.000000000015
 20
-904.1346137652463
 10
671.550000000015
 20
-904.1346137652463
 10
671.550000000015
 20
-904.3346137652463
 42
0.4142135623731036
 10
671.8500000000149
 20
-904.6346137652463
 10
672.750000000015
 20
-904.6346137652463
 42
0.4142135623731039
 10
673.050000000015
 20
-904.3346137652463
 10
673.050000000015
 20
-904.1346137652463
 10
696.1872265965467
 20
-904.1346137652463
 42
-0.4142135623730863
  0
ENDBLK
  5
A2
330
96
100
AcDbEntity
  8
0
100
AcDbBlockEnd
  0
ENDSEC
  0
SECTION
  2
ENTITIES
  0
DIMENSION
  5
79
330
1F
100
AcDbEntity
  8
Maße
100
AcDbDimension
280
     0
  2
*D1
 10
382.6660629058217
 20
182.0
 30
0.0
 11
382.6660629058217
 21
212.0
 31
0.0
 70
   161
 71
     5
 42
60.0
 73
     0
 74
     0
 75
     0
  3
Standard
100
AcDbAlignedDimension
 13
375.6660629058365
 23
242.0
 33
0.0
 14
375.6660629058365
 24
182.0
 34
0.0
1001
ACAD
1000
DSTYLE
1002
{
1070
   279
1070
     2
1070
   289
1070
     0
1002
}
  0
DIMENSION
  5
88
330
1F
100
AcDbEntity
  8
Maße
100
AcDbDimension
280
     0
  2
*D2
 10
375.6660629058365
 20
175.0
 30
0.0
 11
286.666062905829
 21
175.0
 31
0.0
 70
   161
 71
     5
 42
178.000000000015
 73
     0
 74
     0
 75
     0
  3
Standard
100
AcDbAlignedDimension
 13
197.6660629058215
 23
182.0
 33
0.0
 14
375.6660629058365
 24
182.0
 34
0.0
1001
ACAD
1000
DSTYLE
1002
{
1070
   279
1070
     2
1070
   289
1070
     0
1002
}
  0
INSERT
  5
A3
330
1F
100
AcDbEntity
  8
FEIN
100
AcDbBlockReference
  2
*U3
 10
-323.8339370941785
 20
1143.134613765245
 30
0.0
  0
TEXT
  5
A4
330
1F
100
AcDbEntity
  8
Schrift
 62
    16
420
  8323072
100
AcDbText
 10
49.0
 20
236.0
 30
0.0
 40
6.0
  1
Führungsschiene 4-läufig
100
AcDbText
  0
ENDSEC
  0
SECTION
  2
OBJECTS
  0
DICTIONARY
  5
C
330
0
100
AcDbDictionary
281
     1
  3
ACAD_DETAILVIEWSTYLE
350
AC
  3
ACAD_GROUP
350
D
  3
ACAD_LAYOUT
350
1A
  3
ACAD_MATERIAL
350
43
  3
ACAD_MLEADERSTYLE
350
6B
  3
ACAD_MLINESTYLE
350
17
  3
ACAD_PLOTSETTINGS
350
19
  3
ACAD_PLOTSTYLENAME
350
E
  3
ACAD_SCALELIST
350
47
  3
ACAD_SECTIONVIEWSTYLE
350
AD
  3
ACAD_TABLESTYLE
350
69
  3
ACAD_VISUALSTYLE
350
2A
  3
ACDB_RECOMPOSE_DATA
350
A9
  3
AcDbVariableDictionary
350
A5
  0
SUN
  5
6D
330
29
100
AcDbSun
 90
        1
290
     0
 63
     7
421
 16777215
 40
1.0
291
     1
 91
  2455826
 92
 54000000
292
     0
 70
     2
 71
   256
280
     1
  0
DICTIONARY
  5
AC
102
{ACAD_REACTORS
330
C
102
}
330
C
100
AcDbDictionary
281
     1
  0
DICTIONARY
  5
D
102
{ACAD_REACTORS
330
C
102
}
330
C
100
AcDbDictionary
281
     1
  0
DICTIONARY
  5
1A
102
{ACAD_REACTORS
330
C
102
}
330
C
100
AcDbDictionary
281
     1
  3
Layout1
350
1E
  3
Layout2
350
26
  3
Model
350
22
  0
DICTIONARY
  5
43
102
{ACAD_REACTORS
330
C
102
}
330
C
100
AcDbDictionary
281
     1
  3
ByBlock
350
45
  3
ByLayer
350
44
  3
Global
350
46
  0
DICTIONARY
  5
6B
102
{ACAD_REACTORS
330
C
102
}
330
C
100
AcDbDictionary
281
     1
  3
Standard
350
6C
  0
DICTIONARY
  5
17
102
{ACAD_REACTORS
330
C
102
}
330
C
100
AcDbDictionary
281
     1
  3
Standard
350
18
  0
DICTIONARY
  5
19
102
{ACAD_REACTORS
330
C
102
}
330
C
100
AcDbDictionary
281
     1
  0
ACDBDICTIONARYWDFLT
  5
E
102
{ACAD_REACTORS
330
C
102
}
330
C
100
AcDbDictionary
281
     1
  3
Normal
350
F
100
AcDbDictionaryWithDefault
340
F
  0
DICTIONARY
  5
47
102
{ACAD_REACTORS
330
C
102
}
330
C
100
AcDbDictionary
281
     1
  3
A0
350
48
  3
A1
350
49
  3
A2
350
4A
  3
A3
350
4B
  3
A4
350
4C
  3
A5
350
4D
  3
A6
350
4E
  3
A7
350
4F
  3
A8
350
50
  3
A9
350
51
  3
B0
350
52
  3
B1
350
53
  3
B2
350
54
  3
B3
350
55
  3
B4
350
56
  3
B5
350
57
  3
B6
350
58
  3
B7
350
59
  3
B8
350
5A
  3
B9
350
5B
  3
C0
350
5C
  3
C1
350
5D
  3
C2
350
5E
  3
C3
350
5F
  3
C4
350
60
  3
C5
350
61
  3
C6
350
62
  3
C7
350
63
  3
C8
350
64
  3
C9
350
65
  3
D0
350
66
  3
D1
350
67
  3
D2
350
68
  0
DICTIONARY
  5
AD
102
{ACAD_REACTORS
330
C
102
}
330
C
100
AcDbDictionary
281
     1
  0
DICTIONARY
  5
69
102
{ACAD_REACTORS
330
C
102
}
330
C
100
AcDbDictionary
281
     1
  3
Standard
350
6A
  0
DICTIONARY
  5
2A
102
{ACAD_REACTORS
330
C
102
}
330
C
100
AcDbDictionary
281
     1
  3
2dWireframe
350
2F
  3
Basic
350
32
  3
Brighten
350
36
  3
ColorChange
350
3A
  3
Conceptual
350
34
  3
Dim
350
35
  3
EdgeColorOff
350
3D
  3
Facepattern
350
39
  3
Flat
350
2B
  3
FlatWithEdges
350
2C
  3
Gouraud
350
2D
  3
GouraudWithEdges
350
2E
  3
Hidden
350
31
  3
JitterOff
350
3B
  3
Linepattern
350
38
  3
OverhangOff
350
3C
  3
Realistic
350
33
  3
Shaded
350
42
  3
Shaded with edges
350
41
  3
Shades of Gray
350
3E
  3
Sketchy
350
3F
  3
Thicken
350
37
  3
Wireframe
350
30
  3
X-Ray
350
40
  0
XRECORD
  5
A9
102
{ACAD_REACTORS
330
C
102
}
330
C
100
AcDbXrecord
280
     1
 90
        1
330
6A
  0
DICTIONARY
  5
A5
102
{ACAD_REACTORS
330
C
102
}
330
C
100
AcDbDictionary
281
     1
  3
CANNOSCALE
350
A6
  3
CENTEREXE
350
AE
  3
CENTERLTYPEFILE
350
AF
  3
CMLEADERSTYLE
350
AB
  3
CTABLESTYLE
350
AA
  0
LAYOUT
  5
1E
102
{ACAD_REACTORS
330
1A
102
}
330
1A
100
AcDbPlotSettings
  1

  2
none_device
  4

  6

 40
0.0
 41
0.0
 42
0.0
 43
0.0
 44
0.0
 45
0.0
 46
0.0
 47
0.0
 48
0.0
 49
0.0
140
0.0
141
0.0
142
1.0
143
1.0
 70
   688
 72
     1
 73
     0
 74
     5
  7

 75
    16
 76
     0
 77
     2
 78
   300
147
1.0
148
0.0
149
0.0
100
AcDbLayout
  1
Layout1
 70
     1
 71
     1
 10
0.0
 20
0.0
 11
420.0
 21
297.0
 12
0.0
 22
0.0
 32
0.0
 14
1.000000000000000E+20
 24
1.000000000000000E+20
 34
1.000000000000000E+20
 15
-1.000000000000000E+20
 25
-1.000000000000000E+20
 35
-1.000000000000000E+20
146
0.0
 13
0.0
 23
0.0
 33
0.0
 16
1.0
 26
0.0
 36
0.0
 17
0.0
 27
1.0
 37
0.0
 76
     0
330
1B
  0
LAYOUT
  5
26
102
{ACAD_REACTORS
330
1A
102
}
330
1A
100
AcDbPlotSettings
  1

  2
none_device
  4

  6

 40
0.0
 41
0.0
 42
0.0
 43
0.0
 44
0.0
 45
0.0
 46
0.0
 47
0.0
 48
0.0
 49
0.0
140
0.0
141
0.0
142
1.0
143
1.0
 70
   688
 72
     1
 73
     0
 74
     5
  7

 75
    16
 76
     0
 77
     2
 78
   300
147
1.0
148
0.0
149
0.0
100
AcDbLayout
  1
Layout2
 70
     1
 71
     2
 10
0.0
 20
0.0
 11
0.0
 21
0.0
 12
0.0
 22
0.0
 32
0.0
 14
0.0
 24
0.0
 34
0.0
 15
0.0
 25
0.0
 35
0.0
146
0.0
 13
0.0
 23
0.0
 33
0.0
 16
1.0
 26
0.0
 36
0.0
 17
0.0
 27
1.0
 37
0.0
 76
     0
330
23
  0
LAYOUT
  5
22
102
{ACAD_REACTORS
330
1A
102
}
330
1A
100
AcDbPlotSettings
  1

  2
none_device
  4
Letter_(8.50_x_11.00_Inches)
  6

 40
6.35
 41
6.35
 42
6.35000508
 43
6.35000508
 44
215.9
 45
279.4
 46
0.0
 47
0.0
 48
0.0
 49
0.0
140
0.0
141
0.0
142
1.0
143
1.0
 70
  1712
 72
     1
 73
     0
 74
     0
  7

 75
     0
 76
     0
 77
     2
 78
   300
147
1.0
148
0.0
149
0.0
100
AcDbLayout
  1
Model
 70
     1
 71
     0
 10
0.0
 20
0.0
 11
420.0
 21
297.0
 12
0.0
 22
0.0
 32
0.0
 14
1.000000000000000E+20
 24
1.000000000000000E+20
 34
1.000000000000000E+20
 15
-1.000000000000000E+20
 25
-1.000000000000000E+20
 35
-1.000000000000000E+20
146
0.0
 13
0.0
 23
0.0
 33
0.0
 16
1.0
 26
0.0
 36
0.0
 17
0.0
 27
1.0
 37
0.0
 76
     0
330
1F
331
29
  0
MATERIAL
  5
45
102
{ACAD_REACTORS
330
43
102
}
330
43
100
AcDbMaterial
  1
ByBlock
 72
     1
 94
      127
  0
MATERIAL
  5
44
102
{ACAD_REACTORS
330
43
102
}
330
43
100
AcDbMaterial
  1
ByLayer
 72
     1
 94
      127
  0
MATERIAL
  5
46
102
{ACAD_REACTORS
330
43
102
}
330
43
100
AcDbMaterial
  1
Global
 72
     1
 94
      127
  0
MLEADERSTYLE
  5
6C
102
{ACAD_REACTORS
330
6B
102
}
330
6B
100
AcDbMLeaderStyle
179
     2
170
     2
171
     1
172
     0
 90
        2
 40
0.0
 41
0.0
173
     1
 91
-1056964608
340
14
 92
       -2
290
     1
 42
2.0
291
     1
 43
8.0
  3
Standard
341
0
 44
4.0
300

342
11
174
     1
178
     6
175
     1
176
     0
 93
-1056964608
 45
4.0
292
     0
297
     0
 46
4.0
343
0
 94
-1056964608
 47
1.0
 49
1.0
140
1.0
293
     1
141
0.0
294
     1
177
     0
142
1.0
295
     0
296
     0
143
3.75
271
     0
272
     9
273
     9
298
     0
  0
MLINESTYLE
  5
18
102
{ACAD_REACTORS
330
17
102
}
330
17
100
AcDbMlineStyle
  2
Standard
 70
     0
  3

 62
   256
 51
90.0
 52
90.0
 71
     2
 49
0.5
 62
   256
  6
BYLAYER
 49
-0.5
 62
   256
  6
BYLAYER
  0
ACDBPLACEHOLDER
  5
F
102
{ACAD_REACTORS
330
E
102
}
330
E
  0
SCALE
  5
48
102
{ACAD_REACTORS
330
47
102
}
330
47
100
AcDbScale
 70
     0
300
1:1
140
1.0
141
1.0
290
     1
  0
SCALE
  5
49
102
{ACAD_REACTORS
330
47
102
}
330
47
100
AcDbScale
 70
     0
300
1:2
140
1.0
141
2.0
290
     0
  0
SCALE
  5
4A
102
{ACAD_REACTORS
330
47
102
}
330
47
100
AcDbScale
 70
     0
300
1:4
140
1.0
141
4.0
290
     0
  0
SCALE
  5
4B
102
{ACAD_REACTORS
330
47
102
}
330
47
100
AcDbScale
 70
     0
300
1:5
140
1.0
141
5.0
290
     0
  0
SCALE
  5
4C
102
{ACAD_REACTORS
330
47
102
}
330
47
100
AcDbScale
 70
     0
300
1:8
140
1.0
141
8.0
290
     0
  0
SCALE
  5
4D
102
{ACAD_REACTORS
330
47
102
}
330
47
100
AcDbScale
 70
     0
300
1:10
140
1.0
141
10.0
290
     0
  0
SCALE
  5
4E
102
{ACAD_REACTORS
330
47
102
}
330
47
100
AcDbScale
 70
     0
300
1:16
140
1.0
141
16.0
290
     0
  0
SCALE
  5
4F
102
{ACAD_REACTORS
330
47
102
}
330
47
100
AcDbScale
 70
     0
300
1:20
140
1.0
141
20.0
290
     0
  0
SCALE
  5
50
102
{ACAD_REACTORS
330
47
102
}
330
47
100
AcDbScale
 70
     0
300
1:30
140
1.0
141
30.0
290
     0
  0
SCALE
  5
51
102
{ACAD_REACTORS
330
47
102
}
330
47
100
AcDbScale
 70
     0
300
1:40
140
1.0
141
40.0
290
     0
  0
SCALE
  5
52
102
{ACAD_REACTORS
330
47
102
}
330
47
100
AcDbScale
 70
     0
300
1:50
140
1.0
141
50.0
290
     0
  0
SCALE
  5
53
102
{ACAD_REACTORS
330
47
102
}
330
47
100
AcDbScale
 70
     0
300
1:100
140
1.0
141
100.0
290
     0
  0
SCALE
  5
54
102
{ACAD_REACTORS
330
47
102
}
330
47
100
AcDbScale
 70
     0
300
2:1
140
2.0
141
1.0
290
     0
  0
SCALE
  5
55
102
{ACAD_REACTORS
330
47
102
}
330
47
100
AcDbScale
 70
     0
300
4:1
140
4.0
141
1.0
290
     0
  0
SCALE
  5
56
102
{ACAD_REACTORS
330
47
102
}
330
47
100
AcDbScale
 70
     0
300
8:1
140
8.0
141
1.0
290
     0
  0
SCALE
  5
57
102
{ACAD_REACTORS
330
47
102
}
330
47
100
AcDbScale
 70
     0
300
10:1
140
10.0
141
1.0
290
     0
  0
SCALE
  5
58
102
{ACAD_REACTORS
330
47
102
}
330
47
100
AcDbScale
 70
     0
300
100:1
140
100.0
141
1.0
290
     0
  0
SCALE
  5
59
102
{ACAD_REACTORS
330
47
102
}
330
47
100
AcDbScale
 70
     0
300
1/128" = 1'-0"
140
0.0078125
141
12.0
290
     0
  0
SCALE
  5
5A
102
{ACAD_REACTORS
330
47
102
}
330
47
100
AcDbScale
 70
     0
300
1/64" = 1'-0"
140
0.015625
141
12.0
290
     0
  0
SCALE
  5
5B
102
{ACAD_REACTORS
330
47
102
}
330
47
100
AcDbScale
 70
     0
300
1/32" = 1'-0"
140
0.03125
141
12.0
290
     0
  0
SCALE
  5
5C
102
{ACAD_REACTORS
330
47
102
}
330
47
100
AcDbScale
 70
     0
300
1/16" = 1'-0"
140
0.0625
141
12.0
290
     0
  0
SCALE
  5
5D
102
{ACAD_REACTORS
330
47
102
}
330
47
100
AcDbScale
 70
     0
300
3/32" = 1'-0"
140
0.09375
141
12.0
290
     0
  0
SCALE
  5
5E
102
{ACAD_REACTORS
330
47
102
}
330
47
100
AcDbScale
 70
     0
300
1/8" = 1'-0"
140
0.125
141
12.0
290
     0
  0
SCALE
  5
5F
102
{ACAD_REACTORS
330
47
102
}
330
47
100
AcDbScale
 70
     0
300
3/16" = 1'-0"
140
0.1875
141
12.0
290
     0
  0
SCALE
  5
60
102
{ACAD_REACTORS
330
47
102
}
330
47
100
AcDbScale
 70
     0
300
1/4" = 1'-0"
140
0.25
141
12.0
290
     0
  0
SCALE
  5
61
102
{ACAD_REACTORS
330
47
102
}
330
47
100
AcDbScale
 70
     0
300
3/8" = 1'-0"
140
0.375
141
12.0
290
     0
  0
SCALE
  5
62
102
{ACAD_REACTORS
330
47
102
}
330
47
100
AcDbScale
 70
     0
300
1/2" = 1'-0"
140
0.5
141
12.0
290
     0
  0
SCALE
  5
63
102
{ACAD_REACTORS
330
47
102
}
330
47
100
AcDbScale
 70
     0
300
3/4" = 1'-0"
140
0.75
141
12.0
290
     0
  0
SCALE
  5
64
102
{ACAD_REACTORS
330
47
102
}
330
47
100
AcDbScale
 70
     0
300
1" = 1'-0"
140
1.0
141
12.0
290
     0
  0
SCALE
  5
65
102
{ACAD_REACTORS
330
47
102
}
330
47
100
AcDbScale
 70
     0
300
1-1/2" = 1'-0"
140
1.5
141
12.0
290
     0
  0
SCALE
  5
66
102
{ACAD_REACTORS
330
47
102
}
330
47
100
AcDbScale
 70
     0
300
3" = 1'-0"
140
3.0
141
12.0
290
     0
  0
SCALE
  5
67
102
{ACAD_REACTORS
330
47
102
}
330
47
100
AcDbScale
 70
     0
300
6" = 1'-0"
140
6.0
141
12.0
290
     0
  0
SCALE
  5
68
102
{ACAD_REACTORS
330
47
102
}
330
47
100
AcDbScale
 70
     0
300
1'-0" = 1'-0"
140
12.0
141
12.0
290
     0
  0
TABLESTYLE
  5
6A
102
{ACAD_REACTORS
330
69
102
}
102
{ACAD_XDICTIONARY
360
A7
102
}
330
69
100
AcDbTableStyle
  3
Standard
 70
     0
 71
     0
 40
0.06
 41
0.06
280
     0
281
     0
  7
Standard
140
4.5
170
     2
 62
     0
 63
   257
283
     0
 90
        4
 91
        0
  1

274
    -2
284
     1
 64
     0
275
    -2
285
     1
 65
     0
276
    -2
286
     1
 66
     0
277
    -2
287
     1
 67
     0
278
    -2
288
     1
 68
     0
279
    -2
289
     1
 69
     0
  7
Standard
140
6.0
170
     5
 62
     0
 63
   257
283
     0
 90
        4
 91
        0
  1

274
    -2
284
     1
 64
     0
275
    -2
285
     1
 65
     0
276
    -2
286
     1
 66
     0
277
    -2
287
     1
 67
     0
278
    -2
288
     1
 68
     0
279
    -2
289
     1
 69
     0
  7
Standard
140
4.5
170
     5
 62
     0
 63
   257
283
     0
 90
        4
 91
        0
  1

274
    -2
284
     1
 64
     0
275
    -2
285
     1
 65
     0
276
    -2
286
     1
 66
     0
277
    -2
287
     1
 67
     0
278
    -2
288
     1
 68
     0
279
    -2
289
     1
 69
     0
  0
VISUALSTYLE
  5
2F
102
{ACAD_REACTORS
330
2A
102
}
330
2A
100
AcDbVisualStyle
  2
2dWireframe
 70
     4
177
     3
291
     0
 70
    58
 90
        0
176
     1
 90
        2
176
     1
 90
        0
176
     1
 90
        0
176
     1
 40
0.6
176
     1
 40
30.0
176
     1
 62
     7
420
 16777215
176
     1
 90
        1
176
     1
 90
        4
176
     1
 62
     7
176
     1
 62
   257
176
     1
 90
        1
176
     1
 90
        1
176
     1
 40
1.0
176
     1
 90
        0
176
     1
 62
   257
176
     1
 40
1.0
176
     1
 90
        1
176
     1
 90
        6
176
     1
 90
        2
176
     1
 62
     7
176
     1
 90
        5
176
     1
 90
        0
176
     1
 90
        0
176
     1
290
     0
176
     1
 90
        1
176
     1
 40
0.0
176
     1
 90
        0
176
     1
290
     1
176
     1
290
     1
176
     1
290
     0
176
     1
290
     0
176
     1
290
     0
176
     1
290
     0
176
     1
290
     0
176
     1
290
     0
176
     1
290
     0
176
     1
 90
       50
176
     1
 40
0.0
176
     1
 40
1.0
176
     1
 90
        0
176
     1
 62
    18
420
        0
176
     1
 90
       50
176
     1
 90
        3
176
     1
 62
     5
420
      255
176
     1
290
     0
176
     1
 90
       50
176
     1
 90
       50
176
     1
 90
       50
176
     1
290
     0
176
     1
 90
       50
176
     1
 62
   256
176
     0
 40
1.0
176
     0
 90
        2
176
     1
  1
strokes_ogs.tif
176
     1
290
     0
176
     1
 40
1.0
176
     1
 40
1.0
176
     1
  0
VISUALSTYLE
  5
32
102
{ACAD_REACTORS
330
2A
102
}
330
2A
100
AcDbVisualStyle
  2
Basic
 70
     7
177
     3
291
     1
 70
    58
 90
        1
176
     1
 90
        0
176
     1
 90
        1
176
     1
 90
        0
176
     1
 40
0.6
176
     1
 40
30.0
176
     1
 62
     7
420
 16777215
176
     1
 90
        0
176
     1
 90
        4
176
     1
 62
     7
176
     1
 62
   257
176
     1
 90
        1
176
     1
 90
        1
176
     1
 40
1.0
176
     1
 90
        8
176
     1
 62
     7
176
     1
 40
1.0
176
     1
 90
        1
176
     1
 90
        6
176
     1
 90
        2
176
     1
 62
     7
176
     1
 90
        5
176
     1
 90
        0
176
     1
 90
        0
176
     1
290
     0
176
     1
 90
        1
176
     1
 40
0.0
176
     1
 90
        0
176
     1
290
     0
176
     1
290
     1
176
     1
290
     1
176
     1
290
     0
176
     1
290
     0
176
     1
290
     0
176
     1
290
     0
176
     1
290
     0
176
     1
290
     0
176
     1
 90
       50
176
     1
 40
0.0
176
     1
 40
1.0
176
     1
 90
        0
176
     1
 62
    18
420
        0
176
     1
 90
       50
176
     1
 90
        3
176
     1
 62
     5
420
      255
176
     1
290
     0
176
     1
 90
       50
176
     1
 90
       50
176
     1
 90
       50
176
     1
290
     0
176
     1
 90
       50
176
     1
 62
   256
176
     0
 40
1.0
176
     0
 90
        2
176
     1
  1
strokes_ogs.tif
176
     1
290
     0
176
     1
 40
1.0
176
     1
 40
1.0
176
     1
  0
VISUALSTYLE
  5
36
102
{ACAD_REACTORS
330
2A
102
}
330
2A
100
AcDbVisualStyle
  2
Brighten
 70
    12
177
     3
291
     1
 70
    58
 90
        2
176
     1
 90
        2
176
     1
 90
        0
176
     1
 90
        0
176
     1
 40
0.6
176
     1
 40
30.0
176
     1
 62
     7
420
 16777215
176
     1
 90
        1
176
     1
 90
        4
176
     1
 62
     7
176
     1
 62
   257
176
     1
 90
        1
176
     1
 90
        1
176
     1
 40
1.0
176
     1
 90
        8
176
     1
 62
     7
176
     1
 40
1.0
176
     1
 90
        1
176
     1
 90
        6
176
     1
 90
        2
176
     1
 62
     7
176
     1
 90
        5
176
     1
 90
        0
176
     1
 90
        0
176
     1
290
     0
176
     1
 90
        1
176
     1
 40
50.0
176
     1
 90
        0
176
     1
290
     0
176
     1
290
     1
176
     1
290
     1
176
     1
290
     0
176
     1
290
     0
176
     1
290
     0
176
     1
290
     0
176
     1
290
     0
176
     1
290
     0
176
     1
 90
       50
176
     1
 40
0.0
176
     1
 40
1.0
176
     1
 90
        0
176
     1
 62
    18
420
        0
176
     1
 90
       50
176
     1
 90
        3
176
     1
 62
     5
420
      255
176
     1
290
     0
176
     1
 90
       50
176
     1
 90
       50
176
     1
 90
       50
176
     1
290
     0
176
     1
 90
       50
176
     1
 62
   256
176
     0
 40
1.0
176
     0
 90
        2
176
     1
  1
strokes_ogs.tif
176
     1
290
     0
176
     1
 40
1.0
176
     1
 40
1.0
176
     1
  0
VISUALSTYLE
  5
3A
102
{ACAD_REACTORS
330
2A
102
}
330
2A
100
AcDbVisualStyle
  2
ColorChange
 70
    16
177
     3
291
     1
 70
    58
 90
        2
176
     1
 90
        2
176
     1
 90
        3
176
     1
 90
        0
176
     1
 40
0.6
176
     1
 40
30.0
176
     1
 62
     8
420
  8421504
176
     1
 90
        1
176
     1
 90
        4
176
     1
 62
     7
176
     1
 62
   257
176
     1
 90
        1
176
     1
 90
        1
176
     1
 40
1.0
176
     1
 90
        8
176
     1
 62
     8
420
  8421504
176
     1
 40
1.0
176
     1
 90
        1
176
     1
 90
        6
176
     1
 90
        2
176
     1
 62
     7
176
     1
 90
        5
176
     1
 90
        0
176
     1
 90
        0
176
     1
290
     0
176
     1
 90
        1
176
     1
 40
0.0
176
     1
 90
        0
176
     1
290
     0
176
     1
290
     1
176
     1
290
     1
176
     1
290
     0
176
     1
290
     0
176
     1
290
     0
176
     1
290
     0
176
     1
290
     0
176
     1
290
     0
176
     1
 90
       50
176
     1
 40
0.0
176
     1
 40
1.0
176
     1
 90
        0
176
     1
 62
    18
420
        0
176
     1
 90
       50
176
     1
 90
        3
176
     1
 62
     5
420
      255
176
     1
290
     0
176
     1
 90
       50
176
     1
 90
       50
176
     1
 90
       50
176
     1
290
     0
176
     1
 90
       50
176
     1
 62
   256
176
     0
 40
1.0
176
     0
 90
        2
176
     1
  1
strokes_ogs.tif
176
     1
290
     0
176
     1
 40
1.0
176
     1
 40
1.0
176
     1
  0
VISUALSTYLE
  5
34
102
{ACAD_REACTORS
330
2A
102
}
330
2A
100
AcDbVisualStyle
  2
Conceptual
 70
     9
177
     3
291
     0
 70
    58
 90
        3
176
     1
 90
        2
176
     1
 90
        0
176
     1
 90
        0
176
     1
 40
0.6
176
     1
 40
30.0
176
     1
 62
     7
420
 16777215
176
     1
 90
        2
176
     1
 90
        2
176
     1
 62
     7
176
     1
 62
   257
176
     1
 90
        1
176
     1
 90
        1
176
     1
 40
179.0
176
     1
 90
        8
176
     1
 62
     7
176
     1
 40
1.0
176
     1
 90
        1
176
     1
 90
        6
176
     1
 90
        2
176
     1
 62
     7
176
     1
 90
        3
176
     1
 90
        0
176
     1
 90
        0
176
     1
290
     0
176
     1
 90
        1
176
     1
 40
0.0
176
     1
 90
        0
176
     1
290
     0
176
     1
290
     1
176
     1
290
     1
176
     1
290
     0
176
     1
290
     0
176
     1
290
     0
176
     1
290
     0
176
     1
290
     0
176
     1
290
     0
176
     1
 90
       50
176
     1
 40
0.0
176
     1
 40
1.0
176
     1
 90
        0
176
     1
 62
    18
420
        0
176
     1
 90
       50
176
     1
 90
        3
176
     1
 62
     5
420
      255
176
     1
290
     0
176
     1
 90
       50
176
     1
 90
       50
176
     1
 90
       50
176
     1
290
     0
176
     1
 90
       50
176
     1
 62
   256
176
     0
 40
1.0
176
     0
 90
        2
176
     1
  1
strokes_ogs.tif
176
     1
290
     0
176
     1
 40
1.0
176
     1
 40
1.0
176
     1
  0
VISUALSTYLE
  5
35
102
{ACAD_REACTORS
330
2A
102
}
330
2A
100
AcDbVisualStyle
  2
Dim
 70
    11
177
     3
291
     1
 70
    58
 90
        2
176
     1
 90
        2
176
     1
 90
        0
176
     1
 90
        0
176
     1
 40
0.6
176
     1
 40
30.0
176
     1
 62
     7
420
 16777215
176
     1
 90
        1
176
     1
 90
        4
176
     1
 62
     7
176
     1
 62
   257
176
     1
 90
        1
176
     1
 90
        1
176
     1
 40
1.0
176
     1
 90
        8
176
     1
 62
     7
176
     1
 40
1.0
176
     1
 90
        1
176
     1
 90
        6
176
     1
 90
        2
176
     1
 62
     7
176
     1
 90
        5
176
     1
 90
        0
176
     1
 90
        0
176
     1
290
     0
176
     1
 90
        1
176
     1
 40
-50.0
176
     1
 90
        0
176
     1
290
     0
176
     1
290
     1
176
     1
290
     1
176
     1
290
     0
176
     1
290
     0
176
     1
290
     0
176
     1
290
     0
176
     1
290
     0
176
     1
290
     0
176
     1
 90
       50
176
     1
 40
0.0
176
     1
 40
1.0
176
     1
 90
        0
176
     1
 62
    18
420
        0
176
     1
 90
       50
176
     1
 90
        3
176
     1
 62
     5
420
      255
176
     1
290
     0
176
     1
 90
       50
176
     1
 90
       50
176
     1
 90
       50
176
     1
290
     0
176
     1
 90
       50
176
     1
 62
   256
176
     0
 40
1.0
176
     0
 90
        2
176
     1
  1
strokes_ogs.tif
176
     1
290
     0
176
     1
 40
1.0
176
     1
 40
1.0
176
     1
  0
VISUALSTYLE
  5
3D
102
{ACAD_REACTORS
330
2A
102
}
330
2A
100
AcDbVisualStyle
  2
EdgeColorOff
 70
    22
177
     3
291
     1
 70
    58
 90
        2
176
     0
 90
        2
176
     0
 90
        0
176
     0
 90
        0
176
     0
 40
0.6
176
     0
 40
30.0
176
     0
 62
     7
420
 16777215
176
     0
 90
        1
176
     0
 90
        4
176
     0
 62
     7
176
     0
 62
   257
176
     0
 90
        1
176
     0
 90
        1
176
     0
 40
1.0
176
     0
 90
        8
176
     2
 62
     7
176
     0
 40
1.0
176
     0
 90
        1
176
     0
 90
        6
176
     0
 90
        2
176
     0
 62
     7
176
     0
 90
        5
176
     0
 90
        0
176
     0
 90
        0
176
     0
290
     0
176
     0
 90
        1
176
     0
 40
0.0
176
     0
 90
        0
176
     0
290
     0
176
     0
290
     1
176
     0
290
     1
176
     0
290
     0
176
     0
290
     0
176
     0
290
     0
176
     0
290
     0
176
     0
290
     0
176
     0
290
     0
176
     0
 90
       50
176
     0
 40
0.0
176
     0
 40
1.0
176
     0
 90
        0
176
     0
 62
    18
420
        0
176
     0
 90
       50
176
     0
 90
        3
176
     0
 62
     5
420
      255
176
     0
290
     0
176
     0
 90
       50
176
     0
 90
       50
176
     0
 90
       50
176
     0
290
     0
176
     0
 90
       50
176
     0
 62
   256
176
     0
 40
1.0
176
     0
 90
        2
176
     0
  1
strokes_ogs.tif
176
     0
290
     0
176
     0
 40
1.0
176
     0
 40
1.0
176
     0
  0
VISUALSTYLE
  5
39
102
{ACAD_REACTORS
330
2A
102
}
330
2A
100
AcDbVisualStyle
  2
Facepattern
 70
    15
177
     3
291
     1
 70
    58
 90
        2
176
     1
 90
        2
176
     1
 90
        0
176
     1
 90
        0
176
     1
 40
0.6
176
     1
 40
30.0
176
     1
 62
     7
420
 16777215
176
     1
 90
        1
176
     1
 90
        4
176
     1
 62
     7
176
     1
 62
   257
176
     1
 90
        1
176
     1
 90
        1
176
     1
 40
1.0
176
     1
 90
        8
176
     1
 62
     7
176
     1
 40
1.0
176
     1
 90
        1
176
     1
 90
        6
176
     1
 90
        2
176
     1
 62
     7
176
     1
 90
        5
176
     1
 90
        0
176
     1
 90
        0
176
     1
290
     0
176
     1
 90
        1
176
     1
 40
0.0
176
     1
 90
        0
176
     1
290
     0
176
     1
290
     1
176
     1
290
     1
176
     1
290
     0
176
     1
290
     0
176
     1
290
     0
176
     1
290
     0
176
     1
290
     0
176
     1
290
     0
176
     1
 90
       50
176
     1
 40
0.0
176
     1
 40
1.0
176
     1
 90
        0
176
     1
 62
    18
420
        0
176
     1
 90
       50
176
     1
 90
        3
176
     1
 62
     5
420
      255
176
     1
290
     0
176
     1
 90
       50
176
     1
 90
       50
176
     1
 90
       50
176
     1
290
     0
176
     1
 90
       50
176
     1
 62
   256
176
     0
 40
1.0
176
     0
 90
        2
176
     1
  1
strokes_ogs.tif
176
     1
290
     0
176
     1
 40
1.0
176
     1
 40
1.0
176
     1
  0
VISUALSTYLE
  5
2B
102
{ACAD_REACTORS
330
2A
102
}
330
2A
100
AcDbVisualStyle
  2
Flat
 70
     0
177
     3
291
     1
 70
    58
 90
        2
176
     1
 90
        1
176
     1
 90
        1
176
     1
 90
        2
176
     1
 40
0.6
176
     1
 40
30.0
176
     1
 62
     7
420
 16777215
176
     1
 90
        0
176
     1
 90
        0
176
     1
 62
     7
176
     1
 62
   257
176
     1
 90
        1
176
     1
 90
        1
176
     1
 40
1.0
176
     1
 90
        8
176
     1
 62
     7
176
     1
 40
1.0
176
     1
 90
        1
176
     1
 90
        6
176
     1
 90
        2
176
     1
 62
     7
176
     1
 90
        5
176
     1
 90
        0
176
     1
 90
        0
176
     1
290
     0
176
     1
 90
       13
176
     1
 40
0.0
176
     1
 90
        0
176
     1
290
     0
176
     1
290
     1
176
     1
290
     1
176
     1
290
     0
176
     1
290
     0
176
     1
290
     0
176
     1
290
     0
176
     1
290
     0
176
     1
290
     0
176
     1
 90
       50
176
     1
 40
0.0
176
     1
 40
1.0
176
     1
 90
        0
176
     1
 62
    18
420
        0
176
     1
 90
       50
176
     1
 90
        3
176
     1
 62
     5
420
      255
176
     1
290
     0
176
     1
 90
       50
176
     1
 90
       50
176
     1
 90
       50
176
     1
290
     0
176
     1
 90
       50
176
     1
 62
   256
176
     0
 40
1.0
176
     0
 90
        2
176
     1
  1
strokes_ogs.tif
176
     1
290
     0
176
     1
 40
1.0
176
     1
 40
1.0
176
     1
  0
VISUALSTYLE
  5
2C
102
{ACAD_REACTORS
330
2A
102
}
330
2A
100
AcDbVisualStyle
  2
FlatWithEdges
 70
     1
177
     3
291
     1
 70
    58
 90
        2
176
     1
 90
        1
176
     1
 90
        1
176
     1
 90
        2
176
     1
 40
0.6
176
     1
 40
30.0
176
     1
 62
     7
420
 16777215
176
     1
 90
        1
176
     1
 90
        0
176
     1
 62
     7
176
     1
 62
   257
176
     1
 90
        1
176
     1
 90
        1
176
     1
 40
1.0
176
     1
 90
        0
176
     1
 62
   257
176
     1
 40
1.0
176
     1
 90
        1
176
     1
 90
        6
176
     1
 90
        2
176
     1
 62
     7
176
     1
 90
        5
176
     1
 90
        0
176
     1
 90
        0
176
     1
290
     0
176
     1
 90
       13
176
     1
 40
0.0
176
     1
 90
        0
176
     1
290
     0
176
     1
290
     1
176
     1
290
     1
176
     1
290
     0
176
     1
290
     0
176
     1
290
     0
176
     1
290
     0
176
     1
290
     0
176
     1
290
     0
176
     1
 90
       50
176
     1
 40
0.0
176
     1
 40
1.0
176
     1
 90
        0
176
     1
 62
    18
420
        0
176
     1
 90
       50
176
     1
 90
        3
176
     1
 62
     5
420
      255
176
     1
290
     0
176
     1
 90
       50
176
     1
 90
       50
176
     1
 90
       50
176
     1
290
     0
176
     1
 90
       50
176
     1
 62
   256
176
     0
 40
1.0
176
     0
 90
        2
176
     1
  1
strokes_ogs.tif
176
     1
290
     0
176
     1
 40
1.0
176
     1
 40
1.0
176
     1
  0
VISUALSTYLE
  5
2D
102
{ACAD_REACTORS
330
2A
102
}
330
2A
100
AcDbVisualStyle
  2
Gouraud
 70
     2
177
     3
291
     1
 70
    58
 90
        2
176
     1
 90
        2
176
     1
 90
        1
176
     1
 90
        2
176
     1
 40
0.6
176
     1
 40
30.0
176
     1
 62
     7
420
 16777215
176
     1
 90
        0
176
     1
 90
        0
176
     1
 62
     7
176
     1
 62
   257
176
     1
 90
        1
176
     1
 90
        1
176
     1
 40
1.0
176
     1
 90
        0
176
     1
 62
     7
176
     1
 40
1.0
176
     1
 90
        1
176
     1
 90
        6
176
     1
 90
        2
176
     1
 62
     7
176
     1
 90
        5
176
     1
 90
        0
176
     1
 90
        0
176
     1
290
     0
176
     1
 90
       13
176
     1
 40
0.0
176
     1
 90
        0
176
     1
290
     0
176
     1
290
     1
176
     1
290
     1
176
     1
290
     0
176
     1
290
     0
176
     1
290
     0
176
     1
290
     0
176
     1
290
     0
176
     1
290
     0
176
     1
 90
       50
176
     1
 40
0.0
176
     1
 40
1.0
176
     1
 90
        0
176
     1
 62
    18
420
        0
176
     1
 90
       50
176
     1
 90
        3
176
     1
 62
     5
420
      255
176
     1
290
     0
176
     1
 90
       50
176
     1
 90
       50
176
     1
 90
       50
176
     1
290
     0
176
     1
 90
       50
176
     1
 62
   256
176
     0
 40
1.0
176
     0
 90
        2
176
     1
  1
strokes_ogs.tif
176
     1
290
     0
176
     1
 40
1.0
176
     1
 40
1.0
176
     1
  0
VISUALSTYLE
  5
2E
102
{ACAD_REACTORS
330
2A
102
}
330
2A
100
AcDbVisualStyle
  2
GouraudWithEdges
 70
     3
177
     3
291
     1
 70
    58
 90
        2
176
     1
 90
        2
176
     1
 90
        1
176
     1
 90
        2
176
     1
 40
0.6
176
     1
 40
30.0
176
     1
 62
     7
420
 16777215
176
     1
 90
        1
176
     1
 90
        0
176
     1
 62
     7
176
     1
 62
   257
176
     1
 90
        1
176
     1
 90
        1
176
     1
 40
1.0
176
     1
 90
        0
176
     1
 62
   257
176
     1
 40
1.0
176
     1
 90
        1
176
     1
 90
        6
176
     1
 90
        2
176
     1
 62
     7
176
     1
 90
        5
176
     1
 90
        0
176
     1
 90
        0
176
     1
290
     0
176
     1
 90
       13
176
     1
 40
0.0
176
     1
 90
        0
176
     1
290
     0
176
     1
290
     1
176
     1
290
     1
176
     1
290
     0
176
     1
290
     0
176
     1
290
     0
176
     1
290
     0
176
     1
290
     0
176
     1
290
     0
176
     1
 90
       50
176
     1
 40
0.0
176
     1
 40
1.0
176
     1
 90
        0
176
     1
 62
    18
420
        0
176
     1
 90
       50
176
     1
 90
        3
176
     1
 62
     5
420
      255
176
     1
290
     0
176
     1
 90
       50
176
     1
 90
       50
176
     1
 90
       50
176
     1
290
     0
176
     1
 90
       50
176
     1
 62
   256
176
     0
 40
1.0
176
     0
 90
        2
176
     1
  1
strokes_ogs.tif
176
     1
290
     0
176
     1
 40
1.0
176
     1
 40
1.0
176
     1
  0
VISUALSTYLE
  5
31
102
{ACAD_REACTORS
330
2A
102
}
330
2A
100
AcDbVisualStyle
  2
Hidden
 70
     6
177
     3
291
     0
 70
    58
 90
        1
176
     1
 90
        2
176
     1
 90
        2
176
     1
 90
        0
176
     1
 40
0.6
176
     1
 40
30.0
176
     1
 62
     7
420
 16777215
176
     1
 90
        2
176
     1
 90
        2
176
     1
 62
     7
176
     1
 62
   257
176
     1
 90
        2
176
     1
 90
        1
176
     1
 40
40.0
176
     1
 90
        0
176
     1
 62
   257
176
     1
 40
1.0
176
     1
 90
        1
176
     1
 90
        6
176
     1
 90
        2
176
     1
 62
     7
176
     1
 90
        3
176
     1
 90
        0
176
     1
 90
        0
176
     1
290
     0
176
     1
 90
        1
176
     1
 40
0.0
176
     1
 90
        0
176
     1
290
     0
176
     1
290
     1
176
     1
290
     1
176
     1
290
     0
176
     1
290
     0
176
     1
290
     0
176
     1
290
     0
176
     1
290
     0
176
     1
290
     0
176
     1
 90
       50
176
     1
 40
0.0
176
     1
 40
1.0
176
     1
 90
        0
176
     1
 62
    18
420
        0
176
     1
 90
       50
176
     1
 90
        3
176
     1
 62
     5
420
      255
176
     1
290
     0
176
     1
 90
       50
176
     1
 90
       50
176
     1
 90
       50
176
     1
290
     0
176
     1
 90
       50
176
     1
 62
   256
176
     0
 40
1.0
176
     0
 90
        2
176
     1
  1
strokes_ogs.tif
176
     1
290
     0
176
     1
 40
1.0
176
     1
 40
1.0
176
     1
  0
VISUALSTYLE
  5
3B
102
{ACAD_REACTORS
330
2A
102
}
330
2A
100
AcDbVisualStyle
  2
JitterOff
 70
    20
177
     3
291
     1
 70
    58
 90
        2
176
     0
 90
        2
176
     0
 90
        0
176
     0
 90
        0
176
     0
 40
0.6
176
     0
 40
30.0
176
     0
 62
     7
420
 16777215
176
     0
 90
        1
176
     0
 90
        4
176
     0
 62
     7
176
     0
 62
   257
176
     0
 90
        1
176
     0
 90
        1
176
     0
 40
1.0
176
     0
 90
       10
176
     2
 62
     7
176
     0
 40
1.0
176
     0
 90
        1
176
     0
 90
        6
176
     0
 90
        2
176
     0
 62
     7
176
     0
 90
        5
176
     0
 90
        0
176
     0
 90
        0
176
     0
290
     0
176
     0
 90
        1
176
     0
 40
0.0
176
     0
 90
        0
176
     0
290
     0
176
     0
290
     1
176
     0
290
     1
176
     0
290
     0
176
     0
290
     0
176
     0
290
     0
176
     0
290
     0
176
     0
290
     0
176
     0
290
     0
176
     0
 90
       50
176
     0
 40
0.0
176
     0
 40
1.0
176
     0
 90
        0
176
     0
 62
    18
420
        0
176
     0
 90
       50
176
     0
 90
        3
176
     0
 62
     5
420
      255
176
     0
290
     0
176
     0
 90
       50
176
     0
 90
       50
176
     0
 90
       50
176
     0
290
     0
176
     0
 90
       50
176
     0
 62
   256
176
     0
 40
1.0
176
     0
 90
        2
176
     0
  1
strokes_ogs.tif
176
     0
290
     0
176
     0
 40
1.0
176
     0
 40
1.0
176
     0
  0
VISUALSTYLE
  5
38
102
{ACAD_REACTORS
330
2A
102
}
330
2A
100
AcDbVisualStyle
  2
Linepattern
 70
    14
177
     3
291
     1
 70
    58
 90
        2
176
     1
 90
        2
176
     1
 90
        0
176
     1
 90
        0
176
     1
 40
0.6
176
     1
 40
30.0
176
     1
 62
     7
420
 16777215
176
     1
 90
        1
176
     1
 90
        4
176
     1
 62
     7
176
     1
 62
   257
176
     1
 90
        7
176
     1
 90
        7
176
     1
 40
1.0
176
     1
 90
        8
176
     1
 62
     7
176
     1
 40
1.0
176
     1
 90
        1
176
     1
 90
        6
176
     1
 90
        2
176
     1
 62
     7
176
     1
 90
        5
176
     1
 90
        0
176
     1
 90
        0
176
     1
290
     0
176
     1
 90
        1
176
     1
 40
0.0
176
     1
 90
        0
176
     1
290
     0
176
     1
290
     1
176
     1
290
     1
176
     1
290
     0
176
     1
290
     0
176
     1
290
     0
176
     1
290
     0
176
     1
290
     0
176
     1
290
     0
176
     1
 90
       50
176
     1
 40
0.0
176
     1
 40
1.0
176
     1
 90
        0
176
     1
 62
    18
420
        0
176
     1
 90
       50
176
     1
 90
        3
176
     1
 62
     5
420
      255
176
     1
290
     0
176
     1
 90
       50
176
     1
 90
       50
176
     1
 90
       50
176
     1
290
     0
176
     1
 90
       50
176
     1
 62
   256
176
     0
 40
1.0
176
     0
 90
        2
176
     1
  1
strokes_ogs.tif
176
     1
290
     0
176
     1
 40
1.0
176
     1
 40
1.0
176
     1
  0
VISUALSTYLE
  5
3C
102
{ACAD_REACTORS
330
2A
102
}
330
2A
100
AcDbVisualStyle
  2
OverhangOff
 70
    21
177
     3
291
     1
 70
    58
 90
        2
176
     0
 90
        2
176
     0
 90
        0
176
     0
 90
        0
176
     0
 40
0.6
176
     0
 40
30.0
176
     0
 62
     7
420
 16777215
176
     0
 90
        1
176
     0
 90
        4
176
     0
 62
     7
176
     0
 62
   257
176
     0
 90
        1
176
     0
 90
        1
176
     0
 40
1.0
176
     0
 90
        9
176
     2
 62
     7
176
     0
 40
1.0
176
     0
 90
        1
176
     0
 90
        6
176
     0
 90
        2
176
     0
 62
     7
176
     0
 90
        5
176
     0
 90
        0
176
     0
 90
        0
176
     0
290
     0
176
     0
 90
        1
176
     0
 40
0.0
176
     0
 90
        0
176
     0
290
     0
176
     0
290
     1
176
     0
290
     1
176
     0
290
     0
176
     0
290
     0
176
     0
290
     0
176
     0
290
     0
176
     0
290
     0
176
     0
290
     0
176
     0
 90
       50
176
     0
 40
0.0
176
     0
 40
1.0
176
     0
 90
        0
176
     0
 62
    18
420
        0
176
     0
 90
       50
176
     0
 90
        3
176
     0
 62
     5
420
      255
176
     0
290
     0
176
     0
 90
       50
176
     0
 90
       50
176
     0
 90
       50
176
     0
290
     0
176
     0
 90
       50
176
     0
 62
   256
176
     0
 40
1.0
176
     0
 90
        2
176
     0
  1
strokes_ogs.tif
176
     0
290
     0
176
     0
 40
1.0
176
     0
 40
1.0
176
     0
  0
VISUALSTYLE
  5
33
102
{ACAD_REACTORS
330
2A
102
}
330
2A
100
AcDbVisualStyle
  2
Realistic
 70
     8
177
     3
291
     0
 70
    58
 90
        2
176
     1
 90
        3
176
     1
 90
        0
176
     1
 90
        2
176
     1
 40
0.6
176
     1
 40
30.0
176
     1
 62
     7
420
 16777215
176
     1
 90
        0
176
     1
 90
        0
176
     1
 62
     7
176
     1
 62
   257
176
     1
 90
        1
176
     1
 90
        1
176
     1
 40
1.0
176
     1
 90
        8
176
     1
 62
   257
176
     1
 40
1.0
176
     1
 90
        1
176
     1
 90
        6
176
     1
 90
        2
176
     1
 62
     7
176
     1
 90
        3
176
     1
 90
        0
176
     1
 90
        0
176
     1
290
     0
176
     1
 90
       13
176
     1
 40
0.0
176
     1
 90
        0
176
     1
290
     0
176
     1
290
     1
176
     1
290
     1
176
     1
290
     0
176
     1
290
     0
176
     1
290
     0
176
     1
290
     0
176
     1
290
     0
176
     1
290
     0
176
     1
 90
       50
176
     1
 40
0.0
176
     1
 40
1.0
176
     1
 90
        0
176
     1
 62
    18
420
        0
176
     1
 90
       50
176
     1
 90
        3
176
     1
 62
     5
420
      255
176
     1
290
     0
176
     1
 90
       50
176
     1
 90
       50
176
     1
 90
       50
176
     1
290
     0
176
     1
 90
       50
176
     1
 62
   256
176
     0
 40
1.0
176
     0
 90
        2
176
     1
  1
strokes_ogs.tif
176
     1
290
     0
176
     1
 40
1.0
176
     1
 40
1.0
176
     1
  0
VISUALSTYLE
  5
42
102
{ACAD_REACTORS
330
2A
102
}
330
2A
100
AcDbVisualStyle
  2
Shaded
 70
    27
177
     3
291
     0
 70
    58
 90
        2
176
     1
 90
        2
176
     1
 90
        1
176
     1
 90
        2
176
     1
 40
0.6
176
     1
 40
30.0
176
     1
 62
     7
420
 16777215
176
     1
 90
        0
176
     1
 90
        4
176
     1
 62
     7
176
     1
 62
   257
176
     1
 90
        1
176
     1
 90
        1
176
     1
 40
1.0
176
     1
 90
        8
176
     1
 62
   257
176
     1
 40
1.0
176
     1
 90
        1
176
     1
 90
        6
176
     1
 90
        2
176
     1
 62
     8
420
  7895160
176
     1
 90
        3
176
     1
 90
        0
176
     1
 90
        0
176
     1
290
     0
176
     1
 90
        5
176
     1
 40
0.0
176
     1
 90
        0
176
     1
290
     0
176
     1
290
     1
176
     1
290
     1
176
     1
290
     0
176
     1
290
     0
176
     1
290
     0
176
     1
290
     0
176
     1
290
     0
176
     1
290
     0
176
     1
 90
       50
176
     1
 40
0.0
176
     1
 40
1.0
176
     1
 90
        0
176
     1
 62
    18
420
        0
176
     1
 90
       50
176
     1
 90
        3
176
     1
 62
     5
420
      255
176
     1
290
     0
176
     1
 90
       50
176
     1
 90
       50
176
     1
 90
       50
176
     1
290
     0
176
     1
 90
       50
176
     1
 62
   256
176
     0
 40
1.0
176
     0
 90
        2
176
     1
  1
strokes_ogs.tif
176
     1
290
     0
176
     1
 40
1.0
176
     1
 40
1.0
176
     1
  0
VISUALSTYLE
  5
41
102
{ACAD_REACTORS
330
2A
102
}
330
2A
100
AcDbVisualStyle
  2
Shaded with edges
 70
    26
177
     3
291
     0
 70
    58
 90
        2
176
     1
 90
        2
176
     1
 90
        1
176
     1
 90
        2
176
     1
 40
0.6
176
     1
 40
30.0
176
     1
 62
     7
420
 16777215
176
     1
 90
        1
176
     1
 90
       10
176
     1
 62
     7
176
     1
 62
   257
176
     1
 90
        2
176
     1
 90
        1
176
     1
 40
1.0
176
     1
 90
        8
176
     1
 62
   257
176
     1
 40
1.0
176
     1
 90
        1
176
     1
 90
        6
176
     1
 90
        2
176
     1
 62
     7
176
     1
 90
        3
176
     1
 90
        0
176
     1
 90
        0
176
     1
290
     0
176
     1
 90
        5
176
     1
 40
0.0
176
     1
 90
        0
176
     1
290
     0
176
     1
290
     1
176
     1
290
     1
176
     1
290
     0
176
     1
290
     0
176
     1
290
     0
176
     1
290
     0
176
     1
290
     0
176
     1
290
     0
176
     1
 90
       50
176
     1
 40
0.0
176
     1
 40
1.0
176
     1
 90
        0
176
     1
 62
    18
420
        0
176
     1
 90
       50
176
     1
 90
        3
176
     1
 62
     5
420
      255
176
     1
290
     0
176
     1
 90
       50
176
     1
 90
       50
176
     1
 90
       50
176
     1
290
     0
176
     1
 90
       50
176
     1
 62
   256
176
     0
 40
1.0
176
     0
 90
        2
176
     1
  1
strokes_ogs.tif
176
     1
290
     0
176
     1
 40
1.0
176
     1
 40
1.0
176
     1
  0
VISUALSTYLE
  5
3E
102
{ACAD_REACTORS
330
2A
102
}
330
2A
100
AcDbVisualStyle
  2
Shades of Gray
 70
    23
177
     3
291
     0
 70
    58
 90
        2
176
     1
 90
        2
176
     1
 90
        3
176
     1
 90
        0
176
     1
 40
0.6
176
     1
 40
30.0
176
     1
 62
     7
420
 16777215
176
     1
 90
        2
176
     1
 90
        2
176
     1
 62
     7
176
     1
 62
     7
176
     1
 90
        1
176
     1
 90
        1
176
     1
 40
40.0
176
     1
 90
        8
176
     1
 62
     7
176
     1
 40
1.0
176
     1
 90
        1
176
     1
 90
        6
176
     1
 90
        2
176
     1
 62
     7
176
     1
 90
        3
176
     1
 90
        0
176
     1
 90
        0
176
     1
290
     0
176
     1
 90
        1
176
     1
 40
0.0
176
     1
 90
        0
176
     1
290
     0
176
     1
290
     1
176
     1
290
     1
176
     1
290
     0
176
     1
290
     0
176
     1
290
     0
176
     1
290
     0
176
     1
290
     0
176
     1
290
     0
176
     1
 90
       50
176
     1
 40
0.0
176
     1
 40
1.0
176
     1
 90
        0
176
     1
 62
    18
420
        0
176
     1
 90
       50
176
     1
 90
        3
176
     1
 62
     5
420
      255
176
     1
290
     0
176
     1
 90
       50
176
     1
 90
       50
176
     1
 90
       50
176
     1
290
     0
176
     1
 90
       50
176
     1
 62
   256
176
     0
 40
1.0
176
     0
 90
        2
176
     1
  1
strokes_ogs.tif
176
     1
290
     0
176
     1
 40
1.0
176
     1
 40
1.0
176
     1
  0
VISUALSTYLE
  5
3F
102
{ACAD_REACTORS
330
2A
102
}
330
2A
100
AcDbVisualStyle
  2
Sketchy
 70
    24
177
     3
291
     0
 70
    58
 90
        1
176
     1
 90
        2
176
     1
 90
        2
176
     1
 90
        0
176
     1
 40
0.6
176
     1
 40
30.0
176
     1
 62
     7
420
 16777215
176
     1
 90
        2
176
     1
 90
        2
176
     1
 62
     7
176
     1
 62
     7
176
     1
 90
        1
176
     1
 90
        1
176
     1
 40
40.0
176
     1
 90
       11
176
     1
 62
     7
176
     1
 40
1.0
176
     1
 90
        1
176
     1
 90
        6
176
     1
 90
        2
176
     1
 62
     7
176
     1
 90
        6
176
     1
 90
        0
176
     1
 90
        0
176
     1
290
     0
176
     1
 90
        1
176
     1
 40
0.0
176
     1
 90
        0
176
     1
290
     0
176
     1
290
     1
176
     1
290
     1
176
     1
290
     0
176
     1
290
     0
176
     1
290
     0
176
     1
290
     0
176
     1
290
     0
176
     1
290
     0
176
     1
 90
       50
176
     1
 40
0.0
176
     1
 40
1.0
176
     1
 90
        0
176
     1
 62
    18
420
        0
176
     1
 90
       50
176
     1
 90
        3
176
     1
 62
     5
420
      255
176
     1
290
     0
176
     1
 90
       50
176
     1
 90
       50
176
     1
 90
       50
176
     1
290
     0
176
     1
 90
       50
176
     1
 62
   256
176
     0
 40
1.0
176
     0
 90
        2
176
     1
  1
strokes_ogs.tif
176
     1
290
     0
176
     1
 40
1.0
176
     1
 40
1.0
176
     1
  0
VISUALSTYLE
  5
37
102
{ACAD_REACTORS
330
2A
102
}
330
2A
100
AcDbVisualStyle
  2
Thicken
 70
    13
177
     3
291
     1
 70
    58
 90
        2
176
     1
 90
        2
176
     1
 90
        0
176
     1
 90
        0
176
     1
 40
0.6
176
     1
 40
30.0
176
     1
 62
     7
420
 16777215
176
     1
 90
        1
176
     1
 90
        4
176
     1
 62
     7
176
     1
 62
   257
176
     1
 90
        1
176
     1
 90
        1
176
     1
 40
1.0
176
     1
 90
       12
176
     1
 62
     7
176
     1
 40
1.0
176
     1
 90
        1
176
     1
 90
        6
176
     1
 90
        2
176
     1
 62
     7
176
     1
 90
        5
176
     1
 90
        0
176
     1
 90
        0
176
     1
290
     0
176
     1
 90
        1
176
     1
 40
0.0
176
     1
 90
        0
176
     1
290
     0
176
     1
290
     1
176
     1
290
     1
176
     1
290
     0
176
     1
290
     0
176
     1
290
     0
176
     1
290
     0
176
     1
290
     0
176
     1
290
     0
176
     1
 90
       50
176
     1
 40
0.0
176
     1
 40
1.0
176
     1
 90
        0
176
     1
 62
    18
420
        0
176
     1
 90
       50
176
     1
 90
        3
176
     1
 62
     5
420
      255
176
     1
290
     0
176
     1
 90
       50
176
     1
 90
       50
176
     1
 90
       50
176
     1
290
     0
176
     1
 90
       50
176
     1
 62
   256
176
     0
 40
1.0
176
     0
 90
        2
176
     1
  1
strokes_ogs.tif
176
     1
290
     0
176
     1
 40
1.0
176
     1
 40
1.0
176
     1
  0
VISUALSTYLE
  5
30
102
{ACAD_REACTORS
330
2A
102
}
330
2A
100
AcDbVisualStyle
  2
Wireframe
 70
     5
177
     3
291
     0
 70
    58
 90
        0
176
     1
 90
        2
176
     1
 90
        0
176
     1
 90
        0
176
     1
 40
0.6
176
     1
 40
30.0
176
     1
 62
     7
420
 16777215
176
     1
 90
        1
176
     1
 90
        4
176
     1
 62
     7
176
     1
 62
   257
176
     1
 90
        1
176
     1
 90
        1
176
     1
 40
1.0
176
     1
 90
        0
176
     1
 62
   257
176
     1
 40
1.0
176
     1
 90
        1
176
     1
 90
        6
176
     1
 90
        2
176
     1
 62
     7
176
     1
 90
        3
176
     1
 90
        0
176
     1
 90
        0
176
     1
290
     0
176
     1
 90
        1
176
     1
 40
0.0
176
     1
 90
        0
176
     1
290
     0
176
     1
290
     1
176
     1
290
     1
176
     1
290
     0
176
     1
290
     0
176
     1
290
     0
176
     1
290
     0
176
     1
290
     0
176
     1
290
     0
176
     1
 90
       50
176
     1
 40
0.0
176
     1
 40
1.0
176
     1
 90
        0
176
     1
 62
    18
420
        0
176
     1
 90
       50
176
     1
 90
        3
176
     1
 62
     5
420
      255
176
     1
290
     0
176
     1
 90
       50
176
     1
 90
       50
176
     1
 90
       50
176
     1
290
     0
176
     1
 90
       50
176
     1
 62
   256
176
     0
 40
1.0
176
     0
 90
        2
176
     1
  1
strokes_ogs.tif
176
     1
290
     0
176
     1
 40
1.0
176
     1
 40
1.0
176
     1
  0
VISUALSTYLE
  5
40
102
{ACAD_REACTORS
330
2A
102
}
330
2A
100
AcDbVisualStyle
  2
X-Ray
 70
    25
177
     3
291
     0
 70
    58
 90
        2
176
     1
 90
        2
176
     1
 90
        1
176
     1
 90
        1
176
     1
 40
0.5
176
     1
 40
30.0
176
     1
 62
     7
420
 16777215
176
     1
 90
        1
176
     1
 90
        0
176
     1
 62
     7
176
     1
 62
   257
176
     1
 90
        1
176
     1
 90
        1
176
     1
 40
1.0
176
     1
 90
        8
176
     1
 62
     7
176
     1
 40
1.0
176
     1
 90
        1
176
     1
 90
        6
176
     1
 90
        2
176
     1
 62
     7
176
     1
 90
        3
176
     1
 90
        0
176
     1
 90
        0
176
     1
290
     0
176
     1
 90
       13
176
     1
 40
0.0
176
     1
 90
        0
176
     1
290
     0
176
     1
290
     1
176
     1
290
     1
176
     1
290
     0
176
     1
290
     0
176
     1
290
     0
176
     1
290
     0
176
     1
290
     0
176
     1
290
     0
176
     1
 90
       50
176
     1
 40
0.0
176
     1
 40
1.0
176
     1
 90
        0
176
     1
 62
    18
420
        0
176
     1
 90
       50
176
     1
 90
        3
176
     1
 62
     5
420
      255
176
     1
290
     0
176
     1
 90
       50
176
     1
 90
       50
176
     1
 90
       50
176
     1
290
     0
176
     1
 90
       50
176
     1
 62
   256
176
     0
 40
1.0
176
     0
 90
        2
176
     1
  1
strokes_ogs.tif
176
     1
290
     0
176
     1
 40
1.0
176
     1
 40
1.0
176
     1
  0
DICTIONARYVAR
  5
A6
102
{ACAD_REACTORS
330
A5
102
}
330
A5
100
DictionaryVariables
280
     0
  1
1:1
  0
DICTIONARYVAR
  5
AE
102
{ACAD_REACTORS
330
A5
102
}
330
A5
100
DictionaryVariables
280
     0
  1
3.500000
  0
DICTIONARYVAR
  5
AF
102
{ACAD_REACTORS
330
A5
102
}
330
A5
100
DictionaryVariables
280
     0
  1
acadiso.lin
  0
DICTIONARYVAR
  5
AB
102
{ACAD_REACTORS
330
A5
102
}
330
A5
100
DictionaryVariables
280
     0
  1
Standard
  0
DICTIONARYVAR
  5
AA
102
{ACAD_REACTORS
330
A5
102
}
330
A5
100
DictionaryVariables
280
     0
  1
Standard
  0
DICTIONARY
  5
A7
330
6A
100
AcDbDictionary
280
     1
281
     1
  3
ACAD_ROUNDTRIP_2008_TABLESTYLE_CELLSTYLEMAP
360
A8
  0
CELLSTYLEMAP
  5
A8
102
{ACAD_REACTORS
330
A7
102
}
330
A7
100
AcDbCellStyleMap
 90
        3
300
CELLSTYLE
  1
TABLEFORMAT_BEGIN
 90
        5
170
     1
 91
        0
 92
    32768
 62
   257
 93
        1
300
CONTENTFORMAT
  1
CONTENTFORMAT_BEGIN
 90
        0
 91
        0
 92
        4
 93
        0
300

 40
0.0
140
1.0
 94
        5
 62
     0
340
11
144
6.0
309
CONTENTFORMAT_END
171
     1
301
MARGIN
  1
CELLMARGIN_BEGIN
 40
1.5
 40
1.5
 40
1.5
 40
1.5
 40
1.5
 40
1.5
309
CELLMARGIN_END
 94
        6
 95
        1
302
GRIDFORMAT
  1
GRIDFORMAT_BEGIN
 90
        0
 91
        1
 62
     0
 92
       -2
340
14
 93
        0
 40
0.045
309
GRIDFORMAT_END
 95
        2
302
GRIDFORMAT
  1
GRIDFORMAT_BEGIN
 90
        0
 91
        1
 62
     0
 92
       -2
340
14
 93
        0
 40
0.045
309
GRIDFORMAT_END
 95
        4
302
GRIDFORMAT
  1
GRIDFORMAT_BEGIN
 90
        0
 91
        1
 62
     0
 92
       -2
340
14
 93
        0
 40
0.045
309
GRIDFORMAT_END
 95
        8
302
GRIDFORMAT
  1
GRIDFORMAT_BEGIN
 90
        0
 91
        1
 62
     0
 92
       -2
340
14
 93
        0
 40
0.045
309
GRIDFORMAT_END
 95
       16
302
GRIDFORMAT
  1
GRIDFORMAT_BEGIN
 90
        0
 91
        1
 62
     0
 92
       -2
340
14
 93
        0
 40
0.045
309
GRIDFORMAT_END
 95
       32
302
GRIDFORMAT
  1
GRIDFORMAT_BEGIN
 90
        0
 91
        1
 62
     0
 92
       -2
340
14
 93
        0
 40
0.045
309
GRIDFORMAT_END
309
TABLEFORMAT_END
  1
CELLSTYLE_BEGIN
 90
        1
 91
        1
300
_TITLE
309
CELLSTYLE_END
300
CELLSTYLE
  1
TABLEFORMAT_BEGIN
 90
        5
170
     1
 91
        0
 92
        0
 62
   257
 93
        1
300
CONTENTFORMAT
  1
CONTENTFORMAT_BEGIN
 90
        0
 91
        0
 92
        4
 93
        0
300

 40
0.0
140
1.0
 94
        5
 62
     0
340
11
144
4.5
309
CONTENTFORMAT_END
171
     1
301
MARGIN
  1
CELLMARGIN_BEGIN
 40
1.5
 40
1.5
 40
1.5
 40
1.5
 40
1.5
 40
1.5
309
CELLMARGIN_END
 94
        6
 95
        1
302
GRIDFORMAT
  1
GRIDFORMAT_BEGIN
 90
        0
 91
        1
 62
     0
 92
       -2
340
14
 93
        0
 40
0.045
309
GRIDFORMAT_END
 95
        2
302
GRIDFORMAT
  1
GRIDFORMAT_BEGIN
 90
        0
 91
        1
 62
     0
 92
       -2
340
14
 93
        0
 40
0.045
309
GRIDFORMAT_END
 95
        4
302
GRIDFORMAT
  1
GRIDFORMAT_BEGIN
 90
        0
 91
        1
 62
     0
 92
       -2
340
14
 93
        0
 40
0.045
309
GRIDFORMAT_END
 95
        8
302
GRIDFORMAT
  1
GRIDFORMAT_BEGIN
 90
        0
 91
        1
 62
     0
 92
       -2
340
14
 93
        0
 40
0.045
309
GRIDFORMAT_END
 95
       16
302
GRIDFORMAT
  1
GRIDFORMAT_BEGIN
 90
        0
 91
        1
 62
     0
 92
       -2
340
14
 93
        0
 40
0.045
309
GRIDFORMAT_END
 95
       32
302
GRIDFORMAT
  1
GRIDFORMAT_BEGIN
 90
        0
 91
        1
 62
     0
 92
       -2
340
14
 93
        0
 40
0.045
309
GRIDFORMAT_END
309
TABLEFORMAT_END
  1
CELLSTYLE_BEGIN
 90
        2
 91
        1
300
_HEADER
309
CELLSTYLE_END
300
CELLSTYLE
  1
TABLEFORMAT_BEGIN
 90
        5
170
     1
 91
        0
 92
        0
 62
   257
 93
        1
300
CONTENTFORMAT
  1
CONTENTFORMAT_BEGIN
 90
        0
 91
        0
 92
        4
 93
        0
300

 40
0.0
140
1.0
 94
        2
 62
     0
340
11
144
4.5
309
CONTENTFORMAT_END
171
     1
301
MARGIN
  1
CELLMARGIN_BEGIN
 40
1.5
 40
1.5
 40
1.5
 40
1.5
 40
1.5
 40
1.5
309
CELLMARGIN_END
 94
        6
 95
        1
302
GRIDFORMAT
  1
GRIDFORMAT_BEGIN
 90
        0
 91
        1
 62
     0
 92
       -2
340
14
 93
        0
 40
0.045
309
GRIDFORMAT_END
 95
        2
302
GRIDFORMAT
  1
GRIDFORMAT_BEGIN
 90
        0
 91
        1
 62
     0
 92
       -2
340
14
 93
        0
 40
0.045
309
GRIDFORMAT_END
 95
        4
302
GRIDFORMAT
  1
GRIDFORMAT_BEGIN
 90
        0
 91
        1
 62
     0
 92
       -2
340
14
 93
        0
 40
0.045
309
GRIDFORMAT_END
 95
        8
302
GRIDFORMAT
  1
GRIDFORMAT_BEGIN
 90
        0
 91
        1
 62
     0
 92
       -2
340
14
 93
        0
 40
0.045
309
GRIDFORMAT_END
 95
       16
302
GRIDFORMAT
  1
GRIDFORMAT_BEGIN
 90
        0
 91
        1
 62
     0
 92
       -2
340
14
 93
        0
 40
0.045
309
GRIDFORMAT_END
 95
       32
302
GRIDFORMAT
  1
GRIDFORMAT_BEGIN
 90
        0
 91
        1
 62
     0
 92
       -2
340
14
 93
        0
 40
0.045
309
GRIDFORMAT_END
309
TABLEFORMAT_END
  1
CELLSTYLE_BEGIN
 90
        3
 91
        2
300
_DATA
309
CELLSTYLE_END
  0
ENDSEC
  0
EOF
