  0
SECTION
  2
HEADER
  9
$ACADVER
  1
AC1027
  9
$ACADMAINTVER
 70
   105
  9
$DWGCODEPAGE
  3
ANSI_1252
  9
$REQUIREDVERSIONS
160
                 0
  9
$INSBASE
 10
0.0
 20
0.0
 30
0.0
  9
$EXTMIN
 10
1.000000000000000E+20
 20
1.000000000000000E+20
 30
1.000000000000000E+20
  9
$EXTMAX
 10
-1.000000000000000E+20
 20
-1.000000000000000E+20
 30
-1.000000000000000E+20
  9
$LIMMIN
 10
0.0
 20
0.0
  9
$LIMMAX
 10
420.0
 20
297.0
  9
$ORTHOMODE
 70
     0
  9
$REGENMODE
 70
     1
  9
$FILLMODE
 70
     1
  9
$QTEXTMODE
 70
     0
  9
$MIRRTEXT
 70
     1
  9
$LTSCALE
 40
1.0
  9
$ATTMODE
 70
     1
  9
$TEXTSIZE
 40
2.5
  9
$TRACEWID
 40
1.0
  9
$TEXTSTYLE
  7
Standard
  9
$CLAYER
  8
0
  9
$CELTYPE
  6
ByLayer
  9
$CECOLOR
 62
   256
  9
$CELTSCALE
 40
1.0
  9
$DISPSILH
 70
     0
  9
$DIMSCALE
 40
1.0
  9
$DIMASZ
 40
2.5
  9
$DIMEXO
 40
0.625
  9
$DIMDLI
 40
3.75
  9
$DIMRND
 40
0.0
  9
$DIMDLE
 40
0.0
  9
$DIMEXE
 40
1.25
  9
$DIMTP
 40
0.0
  9
$DIMTM
 40
0.0
  9
$DIMTXT
 40
2.5
  9
$DIMCEN
 40
2.5
  9
$DIMTSZ
 40
0.0
  9
$DIMTOL
 70
     0
  9
$DIMLIM
 70
     0
  9
$DIMTIH
 70
     0
  9
$DIMTOH
 70
     0
  9
$DIMSE1
 70
     0
  9
$DIMSE2
 70
     0
  9
$DIMTAD
 70
     1
  9
$DIMZIN
 70
     8
  9
$DIMBLK
  1

  9
$DIMASO
 70
     1
  9
$DIMSHO
 70
     1
  9
$DIMPOST
  1

  9
$DIMAPOST
  1

  9
$DIMALT
 70
     0
  9
$DIMALTD
 70
     3
  9
$DIMALTF
 40
0.03937007874016
  9
$DIMLFAC
 40
1.0
  9
$DIMTOFL
 70
     1
  9
$DIMTVP
 40
0.0
  9
$DIMTIX
 70
     0
  9
$DIMSOXD
 70
     0
  9
$DIMSAH
 70
     0
  9
$DIMBLK1
  1

  9
$DIMBLK2
  1

  9
$DIMSTYLE
  2
ISO-25
  9
$DIMCLRD
 70
     0
  9
$DIMCLRE
 70
     0
  9
$DIMCLRT
 70
     0
  9
$DIMTFAC
 40
1.0
  9
$DIMGAP
 40
0.625
  9
$DIMJUST
 70
     0
  9
$DIMSD1
 70
     0
  9
$DIMSD2
 70
     0
  9
$DIMTOLJ
 70
     0
  9
$DIMTZIN
 70
     8
  9
$DIMALTZ
 70
     0
  9
$DIMALTTZ
 70
     0
  9
$DIMUPT
 70
     0
  9
$DIMDEC
 70
     2
  9
$DIMTDEC
 70
     2
  9
$DIMALTU
 70
     2
  9
$DIMALTTD
 70
     3
  9
$DIMTXSTY
  7
Standard
  9
$DIMAUNIT
 70
     0
  9
$DIMADEC
 70
     0
  9
$DIMALTRND
 40
0.0
  9
$DIMAZIN
 70
     0
  9
$DIMDSEP
 70
    44
  9
$DIMATFIT
 70
     3
  9
$DIMFRAC
 70
     0
  9
$DIMLDRBLK
  1

  9
$DIMLUNIT
 70
     2
  9
$DIMLWD
 70
    -2
  9
$DIMLWE
 70
    -2
  9
$DIMTMOVE
 70
     0
  9
$DIMFXL
 40
1.0
  9
$DIMFXLON
 70
     0
  9
$DIMJOGANG
 40
0.7853981633974483
  9
$DIMTFILL
 70
     0
  9
$DIMTFILLCLR
 70
     0
  9
$DIMARCSYM
 70
     0
  9
$DIMLTYPE
  6

  9
$DIMLTEX1
  6

  9
$DIMLTEX2
  6

  9
$DIMTXTDIRECTION
 70
     0
  9
$LUNITS
 70
     2
  9
$LUPREC
 70
     4
  9
$SKETCHINC
 40
1.0
  9
$FILLETRAD
 40
10.0
  9
$AUNITS
 70
     0
  9
$AUPREC
 70
     0
  9
$MENU
  1
.
  9
$ELEVATION
 40
0.0
  9
$PELEVATION
 40
0.0
  9
$THICKNESS
 40
0.0
  9
$LIMCHECK
 70
     0
  9
$CHAMFERA
 40
0.0
  9
$CHAMFERB
 40
0.0
  9
$CHAMFERC
 40
0.0
  9
$CHAMFERD
 40
0.0
  9
$SKPOLY
 70
     0
  9
$TDCREATE
 40
2459698.333396886
  9
$TDUCREATE
 40
2459698.250063553
  9
$TDUPDATE
 40
2459698.333396921
  9
$TDUUPDATE
 40
2459698.250063588
  9
$TDINDWG
 40
0.0000000116
  9
$TDUSRTIMER
 40
0.0000000116
  9
$USRTIMER
 70
     1
  9
$ANGBASE
 50
0.0
  9
$ANGDIR
 70
     0
  9
$PDMODE
 70
     0
  9
$PDSIZE
 40
0.0
  9
$PLINEWID
 40
0.0
  9
$SPLFRAME
 70
     0
  9
$SPLINETYPE
 70
     6
  9
$SPLINESEGS
 70
     8
  9
$HANDSEED
  5
CC
  9
$SURFTAB1
 70
     6
  9
$SURFTAB2
 70
     6
  9
$SURFTYPE
 70
     6
  9
$SURFU
 70
     6
  9
$SURFV
 70
     6
  9
$UCSBASE
  2

  9
$UCSNAME
  2

  9
$UCSORG
 10
0.0
 20
0.0
 30
0.0
  9
$UCSXDIR
 10
1.0
 20
0.0
 30
0.0
  9
$UCSYDIR
 10
0.0
 20
1.0
 30
0.0
  9
$UCSORTHOREF
  2

  9
$UCSORTHOVIEW
 70
     0
  9
$UCSORGTOP
 10
0.0
 20
0.0
 30
0.0
  9
$UCSORGBOTTOM
 10
0.0
 20
0.0
 30
0.0
  9
$UCSORGLEFT
 10
0.0
 20
0.0
 30
0.0
  9
$UCSORGRIGHT
 10
0.0
 20
0.0
 30
0.0
  9
$UCSORGFRONT
 10
0.0
 20
0.0
 30
0.0
  9
$UCSORGBACK
 10
0.0
 20
0.0
 30
0.0
  9
$PUCSBASE
  2

  9
$PUCSNAME
  2

  9
$PUCSORG
 10
0.0
 20
0.0
 30
0.0
  9
$PUCSXDIR
 10
1.0
 20
0.0
 30
0.0
  9
$PUCSYDIR
 10
0.0
 20
1.0
 30
0.0
  9
$PUCSORTHOREF
  2

  9
$PUCSORTHOVIEW
 70
     0
  9
$PUCSORGTOP
 10
0.0
 20
0.0
 30
0.0
  9
$PUCSORGBOTTOM
 10
0.0
 20
0.0
 30
0.0
  9
$PUCSORGLEFT
 10
0.0
 20
0.0
 30
0.0
  9
$PUCSORGRIGHT
 10
0.0
 20
0.0
 30
0.0
  9
$PUCSORGFRONT
 10
0.0
 20
0.0
 30
0.0
  9
$PUCSORGBACK
 10
0.0
 20
0.0
 30
0.0
  9
$USERI1
 70
     0
  9
$USERI2
 70
     0
  9
$USERI3
 70
     0
  9
$USERI4
 70
     0
  9
$USERI5
 70
     0
  9
$USERR1
 40
0.0
  9
$USERR2
 40
0.0
  9
$USERR3
 40
0.0
  9
$USERR4
 40
0.0
  9
$USERR5
 40
0.0
  9
$WORLDVIEW
 70
     1
  9
$SHADEDGE
 70
     3
  9
$SHADEDIF
 70
    70
  9
$TILEMODE
 70
     1
  9
$MAXACTVP
 70
    64
  9
$PINSBASE
 10
0.0
 20
0.0
 30
0.0
  9
$PLIMCHECK
 70
     0
  9
$PEXTMIN
 10
1.000000000000000E+20
 20
1.000000000000000E+20
 30
1.000000000000000E+20
  9
$PEXTMAX
 10
-1.000000000000000E+20
 20
-1.000000000000000E+20
 30
-1.000000000000000E+20
  9
$PLIMMIN
 10
0.0
 20
0.0
  9
$PLIMMAX
 10
420.0
 20
297.0
  9
$UNITMODE
 70
     0
  9
$VISRETAIN
 70
     1
  9
$PLINEGEN
 70
     0
  9
$PSLTSCALE
 70
     1
  9
$TREEDEPTH
 70
  3020
  9
$CMLSTYLE
  2
Standard
  9
$CMLJUST
 70
     0
  9
$CMLSCALE
 40
20.0
  9
$PROXYGRAPHICS
 70
     1
  9
$MEASUREMENT
 70
     1
  9
$CELWEIGHT
370
    -1
  9
$ENDCAPS
280
     0
  9
$JOINSTYLE
280
     0
  9
$LWDISPLAY
290
     0
  9
$INSUNITS
 70
     4
  9
$HYPERLINKBASE
  1

  9
$STYLESHEET
  1

  9
$XEDIT
290
     1
  9
$CEPSNTYPE
380
     0
  9
$PSTYLEMODE
290
     1
  9
$FINGERPRINTGUID
  2
{7c922501-b580-49ca-b6de-da0bae22ade5}
  9
$VERSIONGUID
  2
{FAEB1C32-E019-11D5-929B-00C0DF256EC4}
  9
$EXTNAMES
290
     1
  9
$PSVPSCALE
 40
0.0
  9
$OLESTARTUP
290
     0
  9
$SORTENTS
280
   127
  9
$INDEXCTL
280
     0
  9
$HIDETEXT
280
     1
  9
$XCLIPFRAME
280
     2
  9
$HALOGAP
280
     0
  9
$OBSCOLOR
 70
   257
  9
$OBSLTYPE
280
     0
  9
$INTERSECTIONDISPLAY
280
     0
  9
$INTERSECTIONCOLOR
 70
   257
  9
$DIMASSOC
280
     2
  9
$PROJECTNAME
  1

  9
$CAMERADISPLAY
290
     0
  9
$LENSLENGTH
 40
50.0
  9
$CAMERAHEIGHT
 40
0.0
  9
$STEPSPERSEC
 40
2.0
  9
$STEPSIZE
 40
6.0
  9
$3DDWFPREC
 40
2.0
  9
$PSOLWIDTH
 40
5.0
  9
$PSOLHEIGHT
 40
80.0
  9
$LOFTANG1
 40
1.570796326794897
  9
$LOFTANG2
 40
1.570796326794897
  9
$LOFTMAG1
 40
0.0
  9
$LOFTMAG2
 40
0.0
  9
$LOFTPARAM
 70
     7
  9
$LOFTNORMALS
280
     1
  9
$LATITUDE
 40
37.795
  9
$LONGITUDE
 40
-122.394
  9
$NORTHDIRECTION
 40
0.0
  9
$TIMEZONE
 70
 -8000
  9
$LIGHTGLYPHDISPLAY
280
     1
  9
$TILEMODELIGHTSYNCH
280
     1
  9
$CMATERIAL
347
44
  9
$SOLIDHIST
280
     0
  9
$SHOWHIST
280
     1
  9
$DWFFRAME
280
     2
  9
$DGNFRAME
280
     2
  9
$REALWORLDSCALE
290
     1
  9
$INTERFERECOLOR
 62
   256
  9
$CSHADOW
280
     0
  9
$SHADOWPLANELOCATION
 40
0.0
  0
ENDSEC
  0
SECTION
  2
CLASSES
  0
CLASS
  1
ACDBDICTIONARYWDFLT
  2
AcDbDictionaryWithDefault
  3
ObjectDBX Classes
 90
        0
 91
        3
280
     0
281
     0
  0
CLASS
  1
VISUALSTYLE
  2
AcDbVisualStyle
  3
ObjectDBX Classes
 90
     4095
 91
        3
280
     0
281
     0
  0
CLASS
  1
MATERIAL
  2
AcDbMaterial
  3
ObjectDBX Classes
 90
     1153
 91
        3
280
     0
281
     0
  0
CLASS
  1
SCALE
  2
AcDbScale
  3
ObjectDBX Classes
 90
     1153
 91
        3
280
     0
281
     0
  0
CLASS
  1
TABLESTYLE
  2
AcDbTableStyle
  3
ObjectDBX Classes
 90
     4095
 91
        3
280
     0
281
     0
  0
CLASS
  1
MLEADERSTYLE
  2
AcDbMLeaderStyle
  3
ACDB_MLEADERSTYLE_CLASS
 90
     4095
 91
        3
280
     0
281
     0
  0
CLASS
  1
SUN
  2
AcDbSun
  3
SCENEOE
 90
     1153
 91
        3
280
     0
281
     0
  0
CLASS
  1
DICTIONARYVAR
  2
AcDbDictionaryVar
  3
ObjectDBX Classes
 90
        0
 91
        3
280
     0
281
     0
  0
CLASS
  1
CELLSTYLEMAP
  2
AcDbCellStyleMap
  3
ObjectDBX Classes
 90
     1152
 91
        3
280
     0
281
     0
  0
ENDSEC
  0
SECTION
  2
TABLES
  0
TABLE
  2
VPORT
  5
8
330
0
100
AcDbSymbolTable
 70
     1
  0
VPORT
  5
29
330
8
100
AcDbSymbolTableRecord
100
AcDbViewportTableRecord
  2
*Active
 70
     0
 10
0.0
 20
0.0
 11
1.0
 21
1.0
 12
0.0
 22
0.0
 13
0.0
 23
0.0
 14
10.0
 24
10.0
 15
10.0
 25
10.0
 16
0.0
 26
0.0
 36
1.0
 17
1459.086311445401
 27
1898.50007583993
 37
0.0
 40
72.45015926385251
 41
5.364808828367429
 42
50.0
 43
0.0
 44
0.0
 50
0.0
 51
0.0
 71
     0
 72
   100
 73
     1
 74
     3
 75
     0
 76
     0
 77
     0
 78
     0
281
     0
 65
     1
110
0.0
120
0.0
130
0.0
111
1.0
121
0.0
131
0.0
112
0.0
122
1.0
132
0.0
 79
     0
146
0.0
348
2F
 60
     3
 61
     5
292
     1
282
     1
141
0.0
142
0.0
 63
   250
361
6D
  0
ENDTAB
  0
TABLE
  2
LTYPE
  5
5
330
0
100
AcDbSymbolTable
 70
     4
  0
LTYPE
  5
14
330
5
100
AcDbSymbolTableRecord
100
AcDbLinetypeTableRecord
  2
ByBlock
 70
     0
  3

 72
    65
 73
     0
 40
0.0
  0
LTYPE
  5
15
330
5
100
AcDbSymbolTableRecord
100
AcDbLinetypeTableRecord
  2
ByLayer
 70
     0
  3

 72
    65
 73
     0
 40
0.0
  0
LTYPE
  5
16
330
5
100
AcDbSymbolTableRecord
100
AcDbLinetypeTableRecord
  2
Continuous
 70
     0
  3
Solid line
 72
    65
 73
     0
 40
0.0
  0
LTYPE
  5
6E
330
5
100
AcDbSymbolTableRecord
100
AcDbLinetypeTableRecord
  2
Gestrichelt
 70
     0
  3

 72
    83
 73
     3
 40
10.0
 49
2.5
 74
     0
 49
-5.0
 74
     0
 49
2.5
 74
     0
  0
LTYPE
  5
6F
330
5
100
AcDbSymbolTableRecord
100
AcDbLinetypeTableRecord
  2
PHL_THICK
 70
     0
  3

 72
    83
 73
     0
 40
0.0
  0
LTYPE
  5
70
330
5
100
AcDbSymbolTableRecord
100
AcDbLinetypeTableRecord
  2
StrichPunkt
 70
     0
  3

 72
    83
 73
     5
 40
15.0
 49
5.0
 74
     0
 49
-2.5
 74
     0
 49
0.0
 74
     0
 49
-2.5
 74
     0
 49
5.0
 74
     0
  0
ENDTAB
  0
TABLE
  2
LAYER
  5
2
330
0
100
AcDbSymbolTable
 70
     6
  0
LAYER
  5
10
330
2
100
AcDbSymbolTableRecord
100
AcDbLayerTableRecord
  2
0
 70
     0
 62
     7
  6
Continuous
370
    -3
390
F
347
46
348
0
  0
LAYER
  5
77
330
2
100
AcDbSymbolTableRecord
100
AcDbLayerTableRecord
  2
FEIN
 70
     0
 62
     7
  6
Continuous
370
    -3
390
F
347
46
348
0
  0
LAYER
  5
7B
330
2
100
AcDbSymbolTableRecord
100
AcDbLayerTableRecord
  2
Defpoints
 70
     0
 62
     7
  6
Continuous
290
     0
370
    -3
390
F
347
46
348
0
  0
LAYER
  5
74
330
2
100
AcDbSymbolTableRecord
100
AcDbLayerTableRecord
  2
Hilfslinie
 70
     0
 62
     1
420
 16711680
  6
Continuous
370
    -3
390
F
347
46
348
0
  0
LAYER
  5
73
330
2
100
AcDbSymbolTableRecord
100
AcDbLayerTableRecord
  2
Maße
 70
     0
 62
     7
  6
Continuous
370
    -3
390
F
347
46
348
0
  0
LAYER
  5
75
330
2
100
AcDbSymbolTableRecord
100
AcDbLayerTableRecord
  2
Schrift
 70
     0
 62
     7
  6
Continuous
370
    -3
390
F
347
46
348
0
  0
ENDTAB
  0
TABLE
  2
STYLE
  5
3
330
0
100
AcDbSymbolTable
 70
     4
  0
STYLE
  5
11
330
3
100
AcDbSymbolTableRecord
100
AcDbTextStyleTableRecord
  2
Standard
 70
     0
 40
10.0
 41
1.0
 50
0.0
 71
     0
 42
2.5
  3
Simplex
  4

  0
STYLE
  5
71
330
3
100
AcDbSymbolTableRecord
100
AcDbTextStyleTableRecord
  2
Standard_Dim
 70
     0
 40
0.0
 41
1.0
 50
0.0
 71
     0
 42
2.5
  3
Simplex
  4

  0
STYLE
  5
76
330
3
100
AcDbSymbolTableRecord
100
AcDbTextStyleTableRecord
  2
Standard_Dim1
 70
     0
 40
0.0
 41
1.0
 50
0.0
 71
     0
 42
2.5
  3
Simplex
  4

  0
STYLE
  5
7C
330
3
100
AcDbSymbolTableRecord
100
AcDbTextStyleTableRecord
  2
Standard_Dim2
 70
     0
 40
0.0
 41
1.0
 50
0.0
 71
     0
 42
2.5
  3
Simplex
  4

  0
ENDTAB
  0
TABLE
  2
VIEW
  5
6
330
0
100
AcDbSymbolTable
 70
     0
  0
ENDTAB
  0
TABLE
  2
UCS
  5
7
330
0
100
AcDbSymbolTable
 70
     0
  0
ENDTAB
  0
TABLE
  2
APPID
  5
9
330
0
100
AcDbSymbolTable
 70
     1
  0
APPID
  5
12
330
9
100
AcDbSymbolTableRecord
100
AcDbRegAppTableRecord
  2
ACAD
 70
     0
  0
ENDTAB
  0
TABLE
  2
DIMSTYLE
  5
A
330
0
100
AcDbSymbolTable
 70
     4
100
AcDbDimStyleTable
  0
DIMSTYLE
105
27
330
A
100
AcDbSymbolTableRecord
100
AcDbDimStyleTableRecord
  2
ISO-25
 70
     0
 41
2.5
 42
0.625
 43
3.75
 44
1.25
 73
     0
 74
     0
 77
     1
 78
    12
140
10.0
141
2.5
143
0.03937007874016
147
1.5
171
     3
172
     1
176
     7
177
     7
271
     2
178
     7
179
     2
271
     2
272
     2
278
    44
283
     0
284
     8
340
7C
  0
DIMSTYLE
105
7D
102
{ACAD_REACTORS
330
7A
330
8B
330
99
102
}
330
A
100
AcDbSymbolTableRecord
100
AcDbDimStyleTableRecord
  2
Standard
 70
     0
 41
2.0
 42
3.0
 44
0.0
 73
     0
 74
     0
 78
    12
140
3.0
147
0.45
176
     7
177
     7
271
     2
178
     7
179
     2
271
     2
272
     2
340
76
  0
DIMSTYLE
105
78
330
A
100
AcDbSymbolTableRecord
100
AcDbDimStyleTableRecord
  2
GROß
 70
     0
 41
8.0
 42
3.0
 44
0.0
 73
     0
 74
     0
 78
    12
140
6.0
147
0.8999999999999999
176
     7
177
     7
271
     1
178
     7
179
     2
271
     1
272
     1
274
     1
340
71
  0
DIMSTYLE
105
79
330
A
100
AcDbSymbolTableRecord
100
AcDbDimStyleTableRecord
  2
klein
 70
     0
 41
2.0
 42
3.0
 44
0.0
 73
     0
 74
     0
 77
     2
 78
    12
140
3.0
147
0.45
176
     7
177
     7
271
     2
178
     7
179
     2
271
     2
272
     2
340
76
  0
ENDTAB
  0
TABLE
  2
BLOCK_RECORD
  5
1
330
0
100
AcDbSymbolTable
 70
     4
  0
BLOCK_RECORD
  5
1F
330
1
100
AcDbSymbolTableRecord
100
AcDbBlockTableRecord
  2
*Model_Space
340
22
 70
     0
280
     1
281
     0
  0
BLOCK_RECORD
  5
1B
330
1
100
AcDbSymbolTableRecord
100
AcDbBlockTableRecord
  2
*Paper_Space
340
1E
 70
     0
280
     1
281
     0
  0
BLOCK_RECORD
  5
23
330
1
100
AcDbSymbolTableRecord
100
AcDbBlockTableRecord
  2
*Paper_Space0
340
26
 70
     0
280
     1
281
     0
  0
BLOCK_RECORD
  5
7E
330
1
100
AcDbSymbolTableRecord
100
AcDbBlockTableRecord
  2
*D1
340
0
 70
     0
280
     1
281
     0
  0
BLOCK_RECORD
  5
8C
330
1
100
AcDbSymbolTableRecord
100
AcDbBlockTableRecord
  2
*D2
340
0
 70
     0
280
     1
281
     0
  0
BLOCK_RECORD
  5
9A
330
1
100
AcDbSymbolTableRecord
100
AcDbBlockTableRecord
  2
*D3
340
0
 70
     0
280
     1
281
     0
  0
ENDTAB
  0
ENDSEC
  0
SECTION
  2
BLOCKS
  0
BLOCK
  5
20
330
1F
100
AcDbEntity
  8
0
100
AcDbBlockBegin
  2
*Model_Space
 70
     0
 10
0.0
 20
0.0
 30
0.0
  3
*Model_Space
  1

  0
ENDBLK
  5
21
330
1F
100
AcDbEntity
  8
0
100
AcDbBlockEnd
  0
BLOCK
  5
1C
330
1B
100
AcDbEntity
 67
     1
  8
0
100
AcDbBlockBegin
  2
*Paper_Space
 70
     0
 10
0.0
 20
0.0
 30
0.0
  3
*Paper_Space
  1

  0
ENDBLK
  5
1D
330
1B
100
AcDbEntity
 67
     1
  8
0
100
AcDbBlockEnd
  0
BLOCK
  5
24
330
23
100
AcDbEntity
  8
0
100
AcDbBlockBegin
  2
*Paper_Space0
 70
     0
 10
0.0
 20
0.0
 30
0.0
  3
*Paper_Space0
  1

  0
ENDBLK
  5
25
330
23
100
AcDbEntity
  8
0
100
AcDbBlockEnd
  0
BLOCK
  5
7F
330
7E
100
AcDbEntity
  8
0
100
AcDbBlockBegin
  2
*D1
 70
     1
 10
0.0
 20
0.0
 30
0.0
  3
*D1
  1

  0
LINE
  5
81
330
7E
100
AcDbEntity
  8
Maße
 62
     7
370
    -2
100
AcDbLine
 10
1568.695364938167
 20
1873.000000000005
 30
0.0
 11
1572.695364938272
 21
1873.000000000013
 31
0.0
  0
LINE
  5
82
330
7E
100
AcDbEntity
  8
Maße
 62
     7
370
    -2
100
AcDbLine
 10
1568.69536493806
 20
1933.000000000005
 30
0.0
 11
1572.695364938165
 21
1933.000000000013
 31
0.0
  0
LINE
  5
83
330
7E
100
AcDbEntity
  8
Maße
 62
     7
370
    -2
100
AcDbLine
 10
1572.695364938268
 20
1875.000000000013
 30
0.0
 11
1572.695364938224
 21
1900.19285714287
 31
0.0
  0
LINE
  5
84
330
7E
100
AcDbEntity
  8
Maße
 62
     7
370
    -2
100
AcDbLine
 10
1572.695364938169
 20
1931.000000000013
 30
0.0
 11
1572.695364938214
 21
1905.807142857156
 31
0.0
  0
SOLID
  5
85
330
7E
100
AcDbEntity
  8
Maße
 62
     7
100
AcDbTrace
 10
1572.362031604935
 20
1875.000000000012
 30
0.0
 11
1573.028698271602
 21
1875.000000000013
 31
0.0
 12
1572.695364938272
 22
1873.000000000013
 32
0.0
 13
1572.695364938272
 23
1873.000000000013
 33
0.0
  0
SOLID
  5
86
330
7E
100
AcDbEntity
  8
Maße
 62
     7
100
AcDbTrace
 10
1573.028698271502
 20
1931.000000000013
 30
0.0
 11
1572.362031604835
 21
1931.000000000012
 31
0.0
 12
1572.695364938165
 22
1933.000000000013
 32
0.0
 13
1572.695364938165
 23
1933.000000000013
 33
0.0
  0
MTEXT
  5
87
330
7E
100
AcDbEntity
  8
Maße
 62
     7
100
AcDbMText
 10
1572.695364938219
 20
1903.000000000013
 30
0.0
 40
3.0
 41
0.0
 46
0.0
 71
     5
 72
     1
  1
\A1;60
  7
Standard_Dim1
 11
-1.781093790971984E-12
 21
1.0
 31
0.0
 73
     1
 44
1.0
  0
POINT
  5
88
330
7E
100
AcDbEntity
  8
Defpoints
 62
     0
100
AcDbPoint
 10
1565.695364938167
 20
1873.0
 30
0.0
  0
POINT
  5
89
330
7E
100
AcDbEntity
  8
Defpoints
 62
     0
100
AcDbPoint
 10
1565.69536493806
 20
1933.0
 30
0.0
  0
POINT
  5
8A
330
7E
100
AcDbEntity
  8
Defpoints
 62
     0
100
AcDbPoint
 10
1572.695364938165
 20
1933.000000000013
 30
0.0
  0
ENDBLK
  5
80
330
7E
100
AcDbEntity
  8
0
100
AcDbBlockEnd
  0
BLOCK
  5
8D
330
8C
100
AcDbEntity
  8
0
100
AcDbBlockBegin
  2
*D2
 70
     1
 10
0.0
 20
0.0
 30
0.0
  3
*D2
  1

  0
LINE
  5
8F
330
8C
100
AcDbEntity
  8
Maße
 62
     7
370
    -2
100
AcDbLine
 10
1457.695364938167
 20
1870.0
 30
0.0
 11
1457.695364938167
 21
1866.0
 31
0.0
  0
LINE
  5
90
330
8C
100
AcDbEntity
  8
Maße
 62
     7
370
    -2
100
AcDbLine
 10
1475.695364938167
 20
1870.0
 30
0.0
 11
1475.695364938167
 21
1866.0
 31
0.0
  0
LINE
  5
91
330
8C
100
AcDbEntity
  8
Maße
 62
     7
370
    -2
100
AcDbLine
 10
1459.695364938167
 20
1866.0
 30
0.0
 11
1464.031079223881
 21
1866.0
 31
0.0
  0
LINE
  5
92
330
8C
100
AcDbEntity
  8
Maße
 62
     7
370
    -2
100
AcDbLine
 10
1473.695364938167
 20
1866.0
 30
0.0
 11
1469.359650652453
 21
1866.0
 31
0.0
  0
SOLID
  5
93
330
8C
100
AcDbEntity
  8
Maße
 62
     7
100
AcDbTrace
 10
1459.695364938167
 20
1866.333333333333
 30
0.0
 11
1459.695364938167
 21
1865.666666666667
 31
0.0
 12
1457.695364938167
 22
1866.0
 32
0.0
 13
1457.695364938167
 23
1866.0
 33
0.0
  0
SOLID
  5
94
330
8C
100
AcDbEntity
  8
Maße
 62
     7
100
AcDbTrace
 10
1473.695364938167
 20
1865.666666666667
 30
0.0
 11
1473.695364938167
 21
1866.333333333333
 31
0.0
 12
1475.695364938167
 22
1866.0
 32
0.0
 13
1475.695364938167
 23
1866.0
 33
0.0
  0
MTEXT
  5
95
330
8C
100
AcDbEntity
  8
Maße
 62
     7
100
AcDbMText
 10
1466.695364938167
 20
1866.0
 30
0.0
 40
3.0
 41
0.0
 46
0.0
 71
     5
 72
     1
  1
\A1;18
  7
Standard_Dim1
 73
     1
 44
1.0
  0
POINT
  5
96
330
8C
100
AcDbEntity
  8
Defpoints
 62
     0
100
AcDbPoint
 10
1457.695364938167
 20
1873.0
 30
0.0
  0
POINT
  5
97
330
8C
100
AcDbEntity
  8
Defpoints
 62
     0
100
AcDbPoint
 10
1475.695364938167
 20
1873.0
 30
0.0
  0
POINT
  5
98
330
8C
100
AcDbEntity
  8
Defpoints
 62
     0
100
AcDbPoint
 10
1475.695364938167
 20
1866.0
 30
0.0
  0
ENDBLK
  5
8E
330
8C
100
AcDbEntity
  8
0
100
AcDbBlockEnd
  0
BLOCK
  5
9B
330
9A
100
AcDbEntity
  8
0
100
AcDbBlockBegin
  2
*D3
 70
     1
 10
0.0
 20
0.0
 30
0.0
  3
*D3
  1

  0
LINE
  5
9D
330
9A
100
AcDbEntity
  8
Maße
 62
     7
370
    -2
100
AcDbLine
 10
1475.695364938167
 20
1870.0
 30
0.0
 11
1475.695364938167
 21
1866.0
 31
0.0
  0
LINE
  5
9E
330
9A
100
AcDbEntity
  8
Maße
 62
     7
370
    -2
100
AcDbLine
 10
1565.695364938167
 20
1870.0
 30
0.0
 11
1565.695364938167
 21
1866.0
 31
0.0
  0
LINE
  5
9F
330
9A
100
AcDbEntity
  8
Maße
 62
     7
370
    -2
100
AcDbLine
 10
1477.695364938167
 20
1866.0
 30
0.0
 11
1517.816793509596
 21
1866.0
 31
0.0
  0
LINE
  5
A0
330
9A
100
AcDbEntity
  8
Maße
 62
     7
370
    -2
100
AcDbLine
 10
1563.695364938167
 20
1866.0
 30
0.0
 11
1523.573936366738
 21
1866.0
 31
0.0
  0
SOLID
  5
A1
330
9A
100
AcDbEntity
  8
Maße
 62
     7
100
AcDbTrace
 10
1477.695364938167
 20
1866.333333333333
 30
0.0
 11
1477.695364938167
 21
1865.666666666667
 31
0.0
 12
1475.695364938167
 22
1866.0
 32
0.0
 13
1475.695364938167
 23
1866.0
 33
0.0
  0
SOLID
  5
A2
330
9A
100
AcDbEntity
  8
Maße
 62
     7
100
AcDbTrace
 10
1563.695364938167
 20
1865.666666666667
 30
0.0
 11
1563.695364938167
 21
1866.333333333333
 31
0.0
 12
1565.695364938167
 22
1866.0
 32
0.0
 13
1565.695364938167
 23
1866.0
 33
0.0
  0
MTEXT
  5
A3
330
9A
100
AcDbEntity
  8
Maße
 62
     7
100
AcDbMText
 10
1520.695364938167
 20
1866.0
 30
0.0
 40
3.0
 41
0.0
 46
0.0
 71
     5
 72
     1
  1
\A1;90
  7
Standard_Dim1
 73
     1
 44
1.0
  0
POINT
  5
A4
330
9A
100
AcDbEntity
  8
Defpoints
 62
     0
100
AcDbPoint
 10
1475.695364938167
 20
1873.0
 30
0.0
  0
POINT
  5
A5
330
9A
100
AcDbEntity
  8
Defpoints
 62
     0
100
AcDbPoint
 10
1565.695364938167
 20
1873.0
 30
0.0
  0
POINT
  5
A6
330
9A
100
AcDbEntity
  8
Defpoints
 62
     0
100
AcDbPoint
 10
1565.695364938167
 20
1866.0
 30
0.0
  0
ENDBLK
  5
9C
330
9A
100
AcDbEntity
  8
0
100
AcDbBlockEnd
  0
ENDSEC
  0
SECTION
  2
ENTITIES
  0
DIMENSION
  5
7A
330
1F
100
AcDbEntity
  8
Maße
100
AcDbDimension
280
     0
  2
*D1
 10
1572.695364938165
 20
1933.000000000013
 30
0.0
 11
1572.695364938219
 21
1903.000000000013
 31
0.0
 70
   161
 71
     5
 42
60.0
 73
     0
 74
     0
 75
     0
  3
Standard
100
AcDbAlignedDimension
 13
1565.695364938167
 23
1873.0
 33
0.0
 14
1565.69536493806
 24
1933.0
 34
0.0
1001
ACAD
1000
DSTYLE
1002
{
1070
   279
1070
     2
1070
   289
1070
     0
1070
   140
1040
3.0
1002
}
  0
DIMENSION
  5
8B
330
1F
100
AcDbEntity
  8
Maße
100
AcDbDimension
280
     0
  2
*D2
 10
1475.695364938167
 20
1866.0
 30
0.0
 11
1466.695364938167
 21
1866.0
 31
0.0
 70
   161
 71
     5
 42
18.0
 73
     0
 74
     0
 75
     0
  3
Standard
100
AcDbAlignedDimension
 13
1457.695364938167
 23
1873.0
 33
0.0
 14
1475.695364938167
 24
1873.0
 34
0.0
1001
ACAD
1000
DSTYLE
1002
{
1070
   279
1070
     2
1070
   289
1070
     0
1070
   140
1040
3.0
1002
}
  0
DIMENSION
  5
99
330
1F
100
AcDbEntity
  8
Maße
100
AcDbDimension
280
     0
  2
*D3
 10
1565.695364938167
 20
1866.0
 30
0.0
 11
1520.695364938167
 21
1866.0
 31
0.0
 70
   161
 71
     5
 42
90.0
 73
     0
 74
     0
 75
     0
  3
Standard
100
AcDbAlignedDimension
 13
1475.695364938167
 23
1873.0
 33
0.0
 14
1565.695364938167
 24
1873.0
 34
0.0
1001
ACAD
1000
DSTYLE
1002
{
1070
   279
1070
     2
1070
   289
1070
     0
1070
   140
1040
3.0
1002
}
  0
MTEXT
  5
B6
330
1F
100
AcDbEntity
  8
Schrift
 62
    16
420
  8323072
100
AcDbMText
 10
1274.0
 20
1933.0
 30
0.0
 40
6.0
 41
370.1726228908021
 46
0.0
 71
     1
 72
     1
  1
Laufschiene 2-läufig\Pmit Ganzglas-Seitenteilprofil 
 73
     1
 44
1.0
  0
HATCH
  5
B7
330
1F
100
AcDbEntity
  8
FEIN
 62
   254
420
 13421772
 48
5.0
100
AcDbHatch
 10
0.0
 20
0.0
 30
0.0
210
0.0
220
0.0
230
1.0
  2
SOLID
 70
     1
 71
     0
 91
        1
 92
       18
 72
     1
 73
     1
 93
       67
 10
1515.120364938167
 20
1922.199999999999
 42
0.0
 10
1514.820364938167
 20
1922.499999999999
 42
0.0
 10
1512.445364938167
 20
1922.499999999999
 42
0.0
 10
1512.445364938167
 20
1922.999999999999
 42
0.414213562373095
 10
1511.945364938167
 20
1923.499999999999
 42
0.0
 10
1485.445364938167
 20
1923.499999999999
 42
0.414213562373095
 10
1484.945364938167
 20
1922.999999999999
 42
0.0
 10
1484.945364938167
 20
1922.499999999999
 42
0.0
 10
1478.195364938167
 20
1922.499999999999
 42
0.414213562373095
 10
1477.695364938167
 20
1921.999999999999
 42
0.0
 10
1477.695364938167
 20
1891.799999999999
 42
0.4142135623730984
 10
1477.995364938167
 20
1891.499999999999
 42
0.0
 10
1493.245364938167
 20
1891.499999999999
 42
0.414213562373095
 10
1493.445364938167
 20
1891.699999999999
 42
0.0
 10
1493.445364938167
 20
1893.654409641347
 42
0.444164509322297
 10
1493.22516626267
 20
1893.853387060941
 42
-0.0456917805358538
 10
1487.75384105567
 20
1893.799515704068
 42
-0.3168915294551775
 10
1486.427028510361
 20
1894.906311351211
 42
0.0
 10
1485.695364938167
 20
1897.636916976686
 42
0.0
 10
1485.695364938167
 20
1901.599999999999
 42
0.0
 10
1484.195364938167
 20
1901.599999999999
 42
0.0
 10
1484.195364938167
 20
1898.599999999999
 42
0.0
 10
1480.395364938167
 20
1898.599999999999
 42
0.0
 10
1480.395364938167
 20
1903.599999999999
 42
0.0
 10
1479.895364938167
 20
1903.599999999999
 42
0.0
 10
1479.895364938167
 20
1911.599999999999
 42
0.0
 10
1480.395364938167
 20
1911.599999999999
 42
0.0
 10
1480.395364938167
 20
1916.599999999999
 42
0.0
 10
1484.195364938167
 20
1916.599999999999
 42
0.0
 10
1484.195364938167
 20
1913.599999999999
 42
0.0
 10
1485.695364938167
 20
1913.599999999999
 42
0.0
 10
1485.695364938167
 20
1919.199999999999
 42
-0.414213562373095
 10
1486.195364938167
 20
1919.699999999999
 42
0.0
 10
1498.395364938167
 20
1919.699999999999
 42
0.0
 10
1498.695364938167
 20
1919.999999999999
 42
0.0
 10
1498.995364938167
 20
1919.699999999999
 42
0.0
 10
1511.195364938166
 20
1919.699999999999
 42
-0.414213562373095
 10
1511.695364938166
 20
1919.199999999999
 42
0.0
 10
1511.695364938166
 20
1913.599999999999
 42
0.0
 10
1513.195364938167
 20
1913.599999999999
 42
0.0
 10
1513.195364938167
 20
1916.599999999999
 42
0.0
 10
1516.995364938167
 20
1916.599999999999
 42
0.0
 10
1516.995364938167
 20
1911.599999999999
 42
0.0
 10
1517.495364938167
 20
1911.599999999999
 42
0.0
 10
1517.495364938167
 20
1903.599999999999
 42
0.0
 10
1516.995364938167
 20
1903.599999999999
 42
0.0
 10
1516.995364938167
 20
1898.599999999999
 42
0.0
 10
1513.195364938167
 20
1898.599999999999
 42
0.0
 10
1513.195364938167
 20
1901.599999999999
 42
0.0
 10
1511.695364938166
 20
1901.599999999999
 42
0.0
 10
1511.695364938166
 20
1897.636916976686
 42
0.0
 10
1510.963701365972
 20
1894.906311351211
 42
-0.3168915294551772
 10
1509.636888820663
 20
1893.799515704068
 42
-0.0456917805358555
 10
1504.165563613663
 20
1893.853387060941
 42
0.4441645093223065
 10
1503.945364938167
 20
1893.654409641347
 42
0.0
 10
1503.945364938167
 20
1891.699999999999
 42
0.414213562373095
 10
1504.145364938167
 20
1891.499999999999
 42
0.0
 10
1519.395364938167
 20
1891.499999999999
 42
0.4142135623730745
 10
1519.695364938167
 20
1891.799999999999
 42
0.0
 10
1519.695364938167
 20
1921.999999999999
 42
0.414213562373095
 10
1519.195364938167
 20
1922.499999999999
 42
0.0
 10
1517.020364938167
 20
1922.499999999999
 42
0.0
 10
1516.720364938167
 20
1922.199999999999
 42
0.0
 10
1516.420364938167
 20
1922.499999999999
 42
0.0
 10
1516.120364938167
 20
1922.199999999999
 42
0.0
 10
1515.820364938167
 20
1922.499999999999
 42
0.0
 10
1515.420364938167
 20
1922.499999999999
 42
0.0
 97
        0
 75
     0
 76
     1
 98
        0
  0
LWPOLYLINE
  5
B8
330
1F
100
AcDbEntity
  8
FEIN
 48
5.0
100
AcDbPolyline
 90
       67
 70
     1
 43
0.0
 10
1515.120364938167
 20
1922.199999999999
 10
1514.820364938167
 20
1922.499999999999
 10
1512.445364938167
 20
1922.499999999999
 10
1512.445364938167
 20
1922.999999999999
 42
0.414213562373095
 10
1511.945364938167
 20
1923.499999999999
 10
1485.445364938167
 20
1923.499999999999
 42
0.414213562373095
 10
1484.945364938167
 20
1922.999999999999
 10
1484.945364938167
 20
1922.499999999999
 10
1478.195364938167
 20
1922.499999999999
 42
0.414213562373095
 10
1477.695364938167
 20
1921.999999999999
 10
1477.695364938167
 20
1891.799999999999
 42
0.4142135623730984
 10
1477.995364938167
 20
1891.499999999999
 10
1493.245364938167
 20
1891.499999999999
 42
0.414213562373095
 10
1493.445364938167
 20
1891.699999999999
 10
1493.445364938167
 20
1893.654409641347
 42
0.444164509322297
 10
1493.22516626267
 20
1893.853387060941
 42
-0.0456917805358538
 10
1487.75384105567
 20
1893.799515704068
 42
-0.3168915294551775
 10
1486.427028510361
 20
1894.906311351211
 10
1485.695364938167
 20
1897.636916976686
 10
1485.695364938167
 20
1901.599999999999
 10
1484.195364938167
 20
1901.599999999999
 10
1484.195364938167
 20
1898.599999999999
 10
1480.395364938167
 20
1898.599999999999
 10
1480.395364938167
 20
1903.599999999999
 10
1479.895364938167
 20
1903.599999999999
 10
1479.895364938167
 20
1911.599999999999
 10
1480.395364938167
 20
1911.599999999999
 10
1480.395364938167
 20
1916.599999999999
 10
1484.195364938167
 20
1916.599999999999
 10
1484.195364938167
 20
1913.599999999999
 10
1485.695364938167
 20
1913.599999999999
 10
1485.695364938167
 20
1919.199999999999
 42
-0.414213562373095
 10
1486.195364938167
 20
1919.699999999999
 10
1498.395364938167
 20
1919.699999999999
 10
1498.695364938167
 20
1919.999999999999
 10
1498.995364938167
 20
1919.699999999999
 10
1511.195364938166
 20
1919.699999999999
 42
-0.414213562373095
 10
1511.695364938166
 20
1919.199999999999
 10
1511.695364938166
 20
1913.599999999999
 10
1513.195364938167
 20
1913.599999999999
 10
1513.195364938167
 20
1916.599999999999
 10
1516.995364938167
 20
1916.599999999999
 10
1516.995364938167
 20
1911.599999999999
 10
1517.495364938167
 20
1911.599999999999
 10
1517.495364938167
 20
1903.599999999999
 10
1516.995364938167
 20
1903.599999999999
 10
1516.995364938167
 20
1898.599999999999
 10
1513.195364938167
 20
1898.599999999999
 10
1513.195364938167
 20
1901.599999999999
 10
1511.695364938166
 20
1901.599999999999
 10
1511.695364938166
 20
1897.636916976686
 10
1510.963701365972
 20
1894.906311351211
 42
-0.3168915294551772
 10
1509.636888820663
 20
1893.799515704068
 42
-0.0456917805358555
 10
1504.165563613663
 20
1893.853387060941
 42
0.4441645093223065
 10
1503.945364938167
 20
1893.654409641347
 10
1503.945364938167
 20
1891.699999999999
 42
0.414213562373095
 10
1504.145364938167
 20
1891.499999999999
 10
1519.395364938167
 20
1891.499999999999
 42
0.4142135623730745
 10
1519.695364938167
 20
1891.799999999999
 10
1519.695364938167
 20
1921.999999999999
 42
0.414213562373095
 10
1519.195364938167
 20
1922.499999999999
 10
1517.020364938167
 20
1922.499999999999
 10
1516.720364938167
 20
1922.199999999999
 10
1516.420364938167
 20
1922.499999999999
 10
1516.120364938167
 20
1922.199999999999
 10
1515.820364938167
 20
1922.499999999999
 10
1515.420364938167
 20
1922.499999999999
  0
HATCH
  5
B9
330
1F
100
AcDbEntity
  8
FEIN
 62
   254
420
 13421772
 48
5.0
100
AcDbHatch
 10
0.0
 20
0.0
 30
0.0
210
0.0
220
0.0
230
1.0
  2
SOLID
 70
     1
 71
     0
 91
        1
 92
       18
 72
     1
 73
     1
 93
       67
 10
1559.120364938167
 20
1922.199999999999
 42
0.0
 10
1558.820364938167
 20
1922.499999999999
 42
0.0
 10
1556.445364938167
 20
1922.499999999999
 42
0.0
 10
1556.445364938167
 20
1922.999999999999
 42
0.414213562373095
 10
1555.945364938167
 20
1923.499999999999
 42
0.0
 10
1529.445364938167
 20
1923.499999999999
 42
0.414213562373095
 10
1528.945364938167
 20
1922.999999999999
 42
0.0
 10
1528.945364938167
 20
1922.499999999999
 42
0.0
 10
1522.195364938167
 20
1922.499999999999
 42
0.414213562373095
 10
1521.695364938167
 20
1921.999999999999
 42
0.0
 10
1521.695364938167
 20
1891.799999999999
 42
0.4142135623730984
 10
1521.995364938167
 20
1891.499999999999
 42
0.0
 10
1537.245364938167
 20
1891.499999999999
 42
0.414213562373095
 10
1537.445364938167
 20
1891.699999999999
 42
0.0
 10
1537.445364938167
 20
1893.654409641347
 42
0.444164509322297
 10
1537.22516626267
 20
1893.853387060941
 42
-0.0456917805358538
 10
1531.75384105567
 20
1893.799515704068
 42
-0.3168915294551775
 10
1530.427028510361
 20
1894.906311351211
 42
0.0
 10
1529.695364938167
 20
1897.636916976686
 42
0.0
 10
1529.695364938167
 20
1901.599999999999
 42
0.0
 10
1528.195364938167
 20
1901.599999999999
 42
0.0
 10
1528.195364938167
 20
1898.599999999999
 42
0.0
 10
1524.395364938167
 20
1898.599999999999
 42
0.0
 10
1524.395364938167
 20
1903.599999999999
 42
0.0
 10
1523.895364938167
 20
1903.599999999999
 42
0.0
 10
1523.895364938167
 20
1911.599999999999
 42
0.0
 10
1524.395364938167
 20
1911.599999999999
 42
0.0
 10
1524.395364938167
 20
1916.599999999999
 42
0.0
 10
1528.195364938167
 20
1916.599999999999
 42
0.0
 10
1528.195364938167
 20
1913.599999999999
 42
0.0
 10
1529.695364938167
 20
1913.599999999999
 42
0.0
 10
1529.695364938167
 20
1919.199999999999
 42
-0.414213562373095
 10
1530.195364938167
 20
1919.699999999999
 42
0.0
 10
1542.395364938167
 20
1919.699999999999
 42
0.0
 10
1542.695364938167
 20
1919.999999999999
 42
0.0
 10
1542.995364938167
 20
1919.699999999999
 42
0.0
 10
1555.195364938166
 20
1919.699999999999
 42
-0.414213562373095
 10
1555.695364938166
 20
1919.199999999999
 42
0.0
 10
1555.695364938166
 20
1913.599999999999
 42
0.0
 10
1557.195364938167
 20
1913.599999999999
 42
0.0
 10
1557.195364938167
 20
1916.599999999999
 42
0.0
 10
1560.995364938167
 20
1916.599999999999
 42
0.0
 10
1560.995364938167
 20
1911.599999999999
 42
0.0
 10
1561.495364938167
 20
1911.599999999999
 42
0.0
 10
1561.495364938167
 20
1903.599999999999
 42
0.0
 10
1560.995364938167
 20
1903.599999999999
 42
0.0
 10
1560.995364938167
 20
1898.599999999999
 42
0.0
 10
1557.195364938167
 20
1898.599999999999
 42
0.0
 10
1557.195364938167
 20
1901.599999999999
 42
0.0
 10
1555.695364938166
 20
1901.599999999999
 42
0.0
 10
1555.695364938166
 20
1897.636916976686
 42
0.0
 10
1554.963701365972
 20
1894.906311351211
 42
-0.3168915294551772
 10
1553.636888820663
 20
1893.799515704068
 42
-0.0456917805358555
 10
1548.165563613663
 20
1893.853387060941
 42
0.4441645093223065
 10
1547.945364938167
 20
1893.654409641347
 42
0.0
 10
1547.945364938167
 20
1891.699999999999
 42
0.414213562373095
 10
1548.145364938167
 20
1891.499999999999
 42
0.0
 10
1563.395364938167
 20
1891.499999999999
 42
0.4142135623730745
 10
1563.695364938167
 20
1891.799999999999
 42
0.0
 10
1563.695364938167
 20
1921.999999999999
 42
0.414213562373095
 10
1563.195364938167
 20
1922.499999999999
 42
0.0
 10
1561.020364938167
 20
1922.499999999999
 42
0.0
 10
1560.720364938167
 20
1922.199999999999
 42
0.0
 10
1560.420364938167
 20
1922.499999999999
 42
0.0
 10
1560.120364938167
 20
1922.199999999999
 42
0.0
 10
1559.820364938167
 20
1922.499999999999
 42
0.0
 10
1559.420364938167
 20
1922.499999999999
 42
0.0
 97
        0
 75
     0
 76
     1
 98
        0
  0
LWPOLYLINE
  5
BA
330
1F
100
AcDbEntity
  8
FEIN
 48
5.0
100
AcDbPolyline
 90
       67
 70
     1
 43
0.0
 10
1559.120364938167
 20
1922.199999999999
 10
1558.820364938167
 20
1922.499999999999
 10
1556.445364938167
 20
1922.499999999999
 10
1556.445364938167
 20
1922.999999999999
 42
0.414213562373095
 10
1555.945364938167
 20
1923.499999999999
 10
1529.445364938167
 20
1923.499999999999
 42
0.414213562373095
 10
1528.945364938167
 20
1922.999999999999
 10
1528.945364938167
 20
1922.499999999999
 10
1522.195364938167
 20
1922.499999999999
 42
0.414213562373095
 10
1521.695364938167
 20
1921.999999999999
 10
1521.695364938167
 20
1891.799999999999
 42
0.4142135623730984
 10
1521.995364938167
 20
1891.499999999999
 10
1537.245364938167
 20
1891.499999999999
 42
0.414213562373095
 10
1537.445364938167
 20
1891.699999999999
 10
1537.445364938167
 20
1893.654409641347
 42
0.444164509322297
 10
1537.22516626267
 20
1893.853387060941
 42
-0.0456917805358538
 10
1531.75384105567
 20
1893.799515704068
 42
-0.3168915294551775
 10
1530.427028510361
 20
1894.906311351211
 10
1529.695364938167
 20
1897.636916976686
 10
1529.695364938167
 20
1901.599999999999
 10
1528.195364938167
 20
1901.599999999999
 10
1528.195364938167
 20
1898.599999999999
 10
1524.395364938167
 20
1898.599999999999
 10
1524.395364938167
 20
1903.599999999999
 10
1523.895364938167
 20
1903.599999999999
 10
1523.895364938167
 20
1911.599999999999
 10
1524.395364938167
 20
1911.599999999999
 10
1524.395364938167
 20
1916.599999999999
 10
1528.195364938167
 20
1916.599999999999
 10
1528.195364938167
 20
1913.599999999999
 10
1529.695364938167
 20
1913.599999999999
 10
1529.695364938167
 20
1919.199999999999
 42
-0.414213562373095
 10
1530.195364938167
 20
1919.699999999999
 10
1542.395364938167
 20
1919.699999999999
 10
1542.695364938167
 20
1919.999999999999
 10
1542.995364938167
 20
1919.699999999999
 10
1555.195364938166
 20
1919.699999999999
 42
-0.414213562373095
 10
1555.695364938166
 20
1919.199999999999
 10
1555.695364938166
 20
1913.599999999999
 10
1557.195364938167
 20
1913.599999999999
 10
1557.195364938167
 20
1916.599999999999
 10
1560.995364938167
 20
1916.599999999999
 10
1560.995364938167
 20
1911.599999999999
 10
1561.495364938167
 20
1911.599999999999
 10
1561.495364938167
 20
1903.599999999999
 10
1560.995364938167
 20
1903.599999999999
 10
1560.995364938167
 20
1898.599999999999
 10
1557.195364938167
 20
1898.599999999999
 10
1557.195364938167
 20
1901.599999999999
 10
1555.695364938166
 20
1901.599999999999
 10
1555.695364938166
 20
1897.636916976686
 10
1554.963701365972
 20
1894.906311351211
 42
-0.3168915294551772
 10
1553.636888820663
 20
1893.799515704068
 42
-0.0456917805358555
 10
1548.165563613663
 20
1893.853387060941
 42
0.4441645093223065
 10
1547.945364938167
 20
1893.654409641347
 10
1547.945364938167
 20
1891.699999999999
 42
0.414213562373095
 10
1548.145364938167
 20
1891.499999999999
 10
1563.395364938167
 20
1891.499999999999
 42
0.4142135623730745
 10
1563.695364938167
 20
1891.799999999999
 10
1563.695364938167
 20
1921.999999999999
 42
0.414213562373095
 10
1563.195364938167
 20
1922.499999999999
 10
1561.020364938167
 20
1922.499999999999
 10
1560.720364938167
 20
1922.199999999999
 10
1560.420364938167
 20
1922.499999999999
 10
1560.120364938167
 20
1922.199999999999
 10
1559.820364938167
 20
1922.499999999999
 10
1559.420364938167
 20
1922.499999999999
  0
HATCH
  5
BB
330
1F
100
AcDbEntity
  8
FEIN
  6
Continuous
 62
   254
420
 13421772
100
AcDbHatch
 10
0.0
 20
0.0
 30
0.0
210
0.0
220
0.0
230
1.0
  2
SOLID
 70
     1
 71
     0
 91
        2
 92
       18
 72
     1
 73
     1
 93
      103
 10
1459.695364938167
 20
1917.833012701892
 42
0.0
 10
1459.695364938167
 20
1928.6
 42
-0.4142135623730742
 10
1459.895364938167
 20
1928.8
 42
0.0
 10
1460.395364938167
 20
1928.8
 42
0.2279028027246515
 10
1460.629671902783
 20
1928.912649402637
 42
0.1702400275404554
 10
1460.695364938167
 20
1929.1
 42
0.0
 10
1460.695364938167
 20
1930.3
 42
0.414213562373095
 10
1460.195364938167
 20
1930.8
 42
-0.4142135623730867
 10
1459.695364938167
 20
1931.3
 42
0.0
 10
1459.695364938167
 20
1932.7
 42
0.4142135623730673
 10
1459.395364938167
 20
1933.0
 42
0.0
 10
1457.995364938167
 20
1933.0
 42
0.4142135623730395
 10
1457.695364938167
 20
1932.7
 42
0.0
 10
1457.695364938167
 20
1873.3
 42
0.4142135623731226
 10
1457.995364938167
 20
1873.0
 42
0.0
 10
1459.395364938167
 20
1873.0
 42
0.414213562373095
 10
1459.695364938167
 20
1873.3
 42
0.0
 10
1459.695364938167
 20
1874.7
 42
-0.414213562373095
 10
1460.195364938167
 20
1875.2
 42
0.414213562373095
 10
1460.695364938167
 20
1875.7
 42
0.0
 10
1460.695364938167
 20
1876.9
 42
0.4142135623731644
 10
1460.395364938167
 20
1877.2
 42
0.0
 10
1459.895364938167
 20
1877.2
 42
-0.414213562373095
 10
1459.695364938167
 20
1877.4
 42
0.0
 10
1459.695364938167
 20
1895.166987298108
 42
-0.2679491924311226
 10
1459.945364938167
 20
1895.6
 42
0.2679491924310841
 10
1460.195364938167
 20
1896.033012701892
 42
0.0
 10
1460.195364938167
 20
1897.0
 42
-0.4142135623730909
 10
1461.195364938167
 20
1898.0
 42
0.0
 10
1474.695364938167
 20
1898.0
 42
-0.4142135623730867
 10
1475.695364938167
 20
1897.0
 42
0.0
 10
1475.695364938167
 20
1877.4
 42
-0.414213562373095
 10
1475.495364938167
 20
1877.2
 42
0.0
 10
1474.995364938167
 20
1877.2
 42
0.4142135623731019
 10
1474.695364938167
 20
1876.9
 42
0.0
 10
1474.695364938167
 20
1875.7
 42
0.414213562373095
 10
1475.195364938167
 20
1875.2
 42
-0.4142135623731159
 10
1475.695364938167
 20
1874.7
 42
0.0
 10
1475.695364938167
 20
1873.3
 42
0.4142135623731226
 10
1475.995364938167
 20
1873.0
 42
0.0
 10
1477.395364938167
 20
1873.0
 42
0.4142135623731228
 10
1477.695364938167
 20
1873.3
 42
0.0
 10
1477.695364938167
 20
1922.2
 42
-0.4142135623732753
 10
1477.995364938167
 20
1922.5
 42
0.0
 10
1484.395364938167
 20
1922.5
 42
0.4142135623730603
 10
1484.695364938167
 20
1922.8
 42
0.0
 10
1484.695364938167
 20
1923.8
 42
0.4142135623730812
 10
1484.395364938167
 20
1924.1
 42
0.0
 10
1481.495364938167
 20
1924.1
 42
0.0
 10
1481.495364938167
 20
1924.172094380864
 42
0.2679491924311648
 10
1481.345364938167
 20
1924.431902001999
 42
0.0
 10
1480.713970698862
 20
1924.796437636026
 42
0.8324306053760493
 10
1480.26735496157
 20
1924.272591590478
 42
-0.5111996690700592
 10
1478.087606317477
 20
1925.152558399333
 42
0.8857851797221997
 10
1478.087606317477
 20
1925.847441600667
 42
-0.5111996690700487
 10
1480.26735496157
 20
1926.727408409522
 42
0.8324306053759476
 10
1480.713970698862
 20
1926.203562363974
 42
0.0
 10
1481.35171159022
 20
1926.571762239272
 42
0.2679491924311655
 10
1481.495364938167
 20
1926.820577136594
 42
0.1657019053367753
 10
1481.43558391748
 20
1926.996011467975
 42
0.0440455152396844
 10
1481.143546756349
 20
1927.312731831853
 42
-0.2112895013235379
 10
1481.045364938167
 20
1927.534698994938
 42
0.0
 10
1481.045364938167
 20
1927.7
 42
-0.4142135623731227
 10
1481.345364938167
 20
1928.0
 42
0.0
 10
1499.395364938167
 20
1928.0
 42
0.0
 10
1499.695364938167
 20
1928.3
 42
0.0
 10
1499.995364938167
 20
1928.0
 42
0.0
 10
1518.195364938167
 20
1928.0
 42
0.414213562373095
 10
1518.695364938167
 20
1928.5
 42
0.0
 10
1518.695364938167
 20
1929.5
 42
0.414213562373095
 10
1518.195364938167
 20
1930.0
 42
0.0
 10
1495.495364938167
 20
1930.0
 42
0.4142135623730222
 10
1495.295364938167
 20
1929.8
 42
0.0
 10
1495.295364938167
 20
1929.7
 42
-0.4142135623730118
 10
1494.995364938167
 20
1929.4
 42
0.0
 10
1493.995364938167
 20
1929.4
 42
-0.4142135623731159
 10
1493.695364938167
 20
1929.7
 42
0.0
 10
1493.695364938167
 20
1929.8
 42
0.4142135623731575
 10
1493.495364938167
 20
1930.0
 42
0.0
 10
1478.995364938167
 20
1930.0
 42
-0.414213562373095
 10
1478.695364938167
 20
1930.3
 42
0.0
 10
1478.695364938167
 20
1931.520245474159
 42
-0.3939104756150996
 10
1478.974437996044
 20
1931.819514689237
 42
0.0
 10
1480.91629188029
 20
1931.955302340622
 42
0.3939104756149773
 10
1481.195364938167
 20
1932.2545715557
 42
0.0
 10
1481.195364938167
 20
1932.5
 42
0.4142135623730784
 10
1480.695364938167
 20
1933.0
 42
0.0
 10
1475.995364938167
 20
1933.0
 42
0.414213562373095
 10
1475.695364938167
 20
1932.7
 42
0.0
 10
1475.695364938167
 20
1931.3
 42
-0.4142135623731034
 10
1475.195364938167
 20
1930.8
 42
0.414213562373095
 10
1474.695364938167
 20
1930.3
 42
0.0
 10
1474.695364938167
 20
1929.1
 42
0.1321217801717718
 10
1474.735834514687
 20
1928.949520900826
 42
0.0745948980827436
 10
1474.791417321509
 20
1928.879987796567
 42
0.1890875373103184
 10
1474.995364938167
 20
1928.8
 42
0.0
 10
1475.495364938167
 20
1928.8
 42
-0.414213562373095
 10
1475.695364938167
 20
1928.6
 42
0.0
 10
1475.695364938167
 20
1916.0
 42
-0.4142135623730867
 10
1474.695364938167
 20
1915.0
 42
0.0
 10
1461.195364938167
 20
1915.0
 42
-0.414213562373095
 10
1460.195364938167
 20
1916.0
 42
0.0
 10
1460.195364938167
 20
1916.966987298108
 42
0.2679491924311069
 97
        0
 92
        2
 72
     1
 73
     1
 93
        8
 10
1474.695364938167
 20
1912.5
 42
-0.4142135623730929
 10
1475.695364938167
 20
1911.5
 42
0.0
 10
1475.695364938167
 20
1901.5
 42
-0.414213562373095
 10
1474.695364938167
 20
1900.5
 42
0.0
 10
1461.195364938167
 20
1900.5
 42
-0.414213562373095
 10
1460.195364938167
 20
1901.5
 42
0.0
 10
1460.195364938167
 20
1911.5
 42
-0.414213562373095
 10
1461.195364938167
 20
1912.5
 42
0.0
 97
        0
 75
     0
 76
     1
 98
        0
  0
LWPOLYLINE
  5
BC
330
1F
100
AcDbEntity
  8
FEIN
  6
Continuous
 62
   254
420
 13421772
 60
     1
100
AcDbPolyline
 90
      103
 70
     1
 43
0.0
 10
1459.695364938167
 20
1917.833012701892
 10
1459.695364938167
 20
1928.6
 42
-0.4142135623730742
 10
1459.895364938167
 20
1928.8
 10
1460.395364938167
 20
1928.8
 42
0.2279028027246515
 10
1460.629671902783
 20
1928.912649402637
 42
0.1702400275404554
 10
1460.695364938167
 20
1929.1
 10
1460.695364938167
 20
1930.3
 42
0.414213562373095
 10
1460.195364938167
 20
1930.8
 42
-0.4142135623730867
 10
1459.695364938167
 20
1931.3
 10
1459.695364938167
 20
1932.7
 42
0.4142135623730673
 10
1459.395364938167
 20
1933.0
 10
1457.995364938167
 20
1933.0
 42
0.4142135623730395
 10
1457.695364938167
 20
1932.7
 10
1457.695364938167
 20
1873.3
 42
0.4142135623731226
 10
1457.995364938167
 20
1873.0
 10
1459.395364938167
 20
1873.0
 42
0.414213562373095
 10
1459.695364938167
 20
1873.3
 10
1459.695364938167
 20
1874.7
 42
-0.414213562373095
 10
1460.195364938167
 20
1875.2
 42
0.414213562373095
 10
1460.695364938167
 20
1875.7
 10
1460.695364938167
 20
1876.9
 42
0.4142135623731644
 10
1460.395364938167
 20
1877.2
 10
1459.895364938167
 20
1877.2
 42
-0.414213562373095
 10
1459.695364938167
 20
1877.4
 10
1459.695364938167
 20
1895.166987298108
 42
-0.2679491924311226
 10
1459.945364938167
 20
1895.6
 42
0.2679491924310841
 10
1460.195364938167
 20
1896.033012701892
 10
1460.195364938167
 20
1897.0
 42
-0.4142135623730909
 10
1461.195364938167
 20
1898.0
 10
1474.695364938167
 20
1898.0
 42
-0.4142135623730867
 10
1475.695364938167
 20
1897.0
 10
1475.695364938167
 20
1877.4
 42
-0.414213562373095
 10
1475.495364938167
 20
1877.2
 10
1474.995364938167
 20
1877.2
 42
0.4142135623731019
 10
1474.695364938167
 20
1876.9
 10
1474.695364938167
 20
1875.7
 42
0.414213562373095
 10
1475.195364938167
 20
1875.2
 42
-0.4142135623731159
 10
1475.695364938167
 20
1874.7
 10
1475.695364938167
 20
1873.3
 42
0.4142135623731226
 10
1475.995364938167
 20
1873.0
 10
1477.395364938167
 20
1873.0
 42
0.4142135623731228
 10
1477.695364938167
 20
1873.3
 10
1477.695364938167
 20
1922.2
 42
-0.4142135623732753
 10
1477.995364938167
 20
1922.5
 10
1484.395364938167
 20
1922.5
 42
0.4142135623730603
 10
1484.695364938167
 20
1922.8
 10
1484.695364938167
 20
1923.8
 42
0.4142135623730812
 10
1484.395364938167
 20
1924.1
 10
1481.495364938167
 20
1924.1
 10
1481.495364938167
 20
1924.172094380864
 42
0.2679491924311648
 10
1481.345364938167
 20
1924.431902001999
 10
1480.713970698862
 20
1924.796437636026
 42
0.8324306053760493
 10
1480.26735496157
 20
1924.272591590478
 42
-0.5111996690700592
 10
1478.087606317477
 20
1925.152558399333
 42
0.8857851797221997
 10
1478.087606317477
 20
1925.847441600667
 42
-0.5111996690700487
 10
1480.26735496157
 20
1926.727408409522
 42
0.8324306053759476
 10
1480.713970698862
 20
1926.203562363974
 10
1481.35171159022
 20
1926.571762239272
 42
0.2679491924311655
 10
1481.495364938167
 20
1926.820577136594
 42
0.1657019053367753
 10
1481.43558391748
 20
1926.996011467975
 42
0.0440455152396844
 10
1481.143546756349
 20
1927.312731831853
 42
-0.2112895013235379
 10
1481.045364938167
 20
1927.534698994938
 10
1481.045364938167
 20
1927.7
 42
-0.4142135623731227
 10
1481.345364938167
 20
1928.0
 10
1499.395364938167
 20
1928.0
 10
1499.695364938167
 20
1928.3
 10
1499.995364938167
 20
1928.0
 10
1518.195364938167
 20
1928.0
 42
0.414213562373095
 10
1518.695364938167
 20
1928.5
 10
1518.695364938167
 20
1929.5
 42
0.414213562373095
 10
1518.195364938167
 20
1930.0
 10
1495.495364938167
 20
1930.0
 42
0.4142135623730222
 10
1495.295364938167
 20
1929.8
 10
1495.295364938167
 20
1929.7
 42
-0.4142135623730118
 10
1494.995364938167
 20
1929.4
 10
1493.995364938167
 20
1929.4
 42
-0.4142135623731159
 10
1493.695364938167
 20
1929.7
 10
1493.695364938167
 20
1929.8
 42
0.4142135623731575
 10
1493.495364938167
 20
1930.0
 10
1478.995364938167
 20
1930.0
 42
-0.414213562373095
 10
1478.695364938167
 20
1930.3
 10
1478.695364938167
 20
1931.520245474159
 42
-0.3939104756150996
 10
1478.974437996044
 20
1931.819514689237
 10
1480.91629188029
 20
1931.955302340622
 42
0.3939104756149773
 10
1481.195364938167
 20
1932.2545715557
 10
1481.195364938167
 20
1932.5
 42
0.4142135623730784
 10
1480.695364938167
 20
1933.0
 10
1475.995364938167
 20
1933.0
 42
0.414213562373095
 10
1475.695364938167
 20
1932.7
 10
1475.695364938167
 20
1931.3
 42
-0.4142135623731034
 10
1475.195364938167
 20
1930.8
 42
0.414213562373095
 10
1474.695364938167
 20
1930.3
 10
1474.695364938167
 20
1929.1
 42
0.1321217801717718
 10
1474.735834514687
 20
1928.949520900826
 42
0.0745948980827436
 10
1474.791417321509
 20
1928.879987796567
 42
0.1890875373103184
 10
1474.995364938167
 20
1928.8
 10
1475.495364938167
 20
1928.8
 42
-0.414213562373095
 10
1475.695364938167
 20
1928.6
 10
1475.695364938167
 20
1916.0
 42
-0.4142135623730867
 10
1474.695364938167
 20
1915.0
 10
1461.195364938167
 20
1915.0
 42
-0.414213562373095
 10
1460.195364938167
 20
1916.0
 10
1460.195364938167
 20
1916.966987298108
 42
0.2679491924311069
  0
LWPOLYLINE
  5
BD
330
1F
100
AcDbEntity
  8
FEIN
  6
Continuous
 62
   254
420
 13421772
 60
     1
100
AcDbPolyline
 90
        8
 70
     1
 43
0.0
 10
1474.695364938167
 20
1912.5
 42
-0.4142135623730929
 10
1475.695364938167
 20
1911.5
 10
1475.695364938167
 20
1901.5
 42
-0.414213562373095
 10
1474.695364938167
 20
1900.5
 10
1461.195364938167
 20
1900.5
 42
-0.414213562373095
 10
1460.195364938167
 20
1901.5
 10
1460.195364938167
 20
1911.5
 42
-0.414213562373095
 10
1461.195364938167
 20
1912.5
  0
LWPOLYLINE
  5
A7
330
1F
100
AcDbEntity
  8
FEIN
  6
Continuous
 62
     7
100
AcDbPolyline
 90
      103
 70
     1
 43
0.0
 10
1459.695364938167
 20
1917.833012701892
 10
1459.695364938167
 20
1928.6
 42
-0.4142135623730742
 10
1459.895364938167
 20
1928.8
 10
1460.395364938167
 20
1928.8
 42
0.2279028027246515
 10
1460.629671902783
 20
1928.912649402637
 42
0.1702400275404554
 10
1460.695364938167
 20
1929.1
 10
1460.695364938167
 20
1930.3
 42
0.414213562373095
 10
1460.195364938167
 20
1930.8
 42
-0.4142135623730867
 10
1459.695364938167
 20
1931.3
 10
1459.695364938167
 20
1932.7
 42
0.4142135623730673
 10
1459.395364938167
 20
1933.0
 10
1457.995364938167
 20
1933.0
 42
0.4142135623730395
 10
1457.695364938167
 20
1932.7
 10
1457.695364938167
 20
1873.3
 42
0.4142135623731226
 10
1457.995364938167
 20
1873.0
 10
1459.395364938167
 20
1873.0
 42
0.414213562373095
 10
1459.695364938167
 20
1873.3
 10
1459.695364938167
 20
1874.7
 42
-0.414213562373095
 10
1460.195364938167
 20
1875.2
 42
0.414213562373095
 10
1460.695364938167
 20
1875.7
 10
1460.695364938167
 20
1876.9
 42
0.4142135623731644
 10
1460.395364938167
 20
1877.2
 10
1459.895364938167
 20
1877.2
 42
-0.414213562373095
 10
1459.695364938167
 20
1877.4
 10
1459.695364938167
 20
1895.166987298108
 42
-0.2679491924311226
 10
1459.945364938167
 20
1895.6
 42
0.2679491924310841
 10
1460.195364938167
 20
1896.033012701892
 10
1460.195364938167
 20
1897.0
 42
-0.4142135623730909
 10
1461.195364938167
 20
1898.0
 10
1474.695364938167
 20
1898.0
 42
-0.4142135623730867
 10
1475.695364938167
 20
1897.0
 10
1475.695364938167
 20
1877.4
 42
-0.414213562373095
 10
1475.495364938167
 20
1877.2
 10
1474.995364938167
 20
1877.2
 42
0.4142135623731019
 10
1474.695364938167
 20
1876.9
 10
1474.695364938167
 20
1875.7
 42
0.414213562373095
 10
1475.195364938167
 20
1875.2
 42
-0.4142135623731159
 10
1475.695364938167
 20
1874.7
 10
1475.695364938167
 20
1873.3
 42
0.4142135623731226
 10
1475.995364938167
 20
1873.0
 10
1477.395364938167
 20
1873.0
 42
0.4142135623731228
 10
1477.695364938167
 20
1873.3
 10
1477.695364938167
 20
1922.2
 42
-0.4142135623732753
 10
1477.995364938167
 20
1922.5
 10
1484.395364938167
 20
1922.5
 42
0.4142135623730603
 10
1484.695364938167
 20
1922.8
 10
1484.695364938167
 20
1923.8
 42
0.4142135623730812
 10
1484.395364938167
 20
1924.1
 10
1481.495364938167
 20
1924.1
 10
1481.495364938167
 20
1924.172094380864
 42
0.2679491924311648
 10
1481.345364938167
 20
1924.431902001999
 10
1480.713970698862
 20
1924.796437636026
 42
0.8324306053760493
 10
1480.26735496157
 20
1924.272591590478
 42
-0.5111996690700592
 10
1478.087606317477
 20
1925.152558399333
 42
0.8857851797221997
 10
1478.087606317477
 20
1925.847441600667
 42
-0.5111996690700487
 10
1480.26735496157
 20
1926.727408409522
 42
0.8324306053759476
 10
1480.713970698862
 20
1926.203562363974
 10
1481.35171159022
 20
1926.571762239272
 42
0.2679491924311655
 10
1481.495364938167
 20
1926.820577136594
 42
0.1657019053367753
 10
1481.43558391748
 20
1926.996011467975
 42
0.0440455152396844
 10
1481.143546756349
 20
1927.312731831853
 42
-0.2112895013235379
 10
1481.045364938167
 20
1927.534698994938
 10
1481.045364938167
 20
1927.7
 42
-0.4142135623731227
 10
1481.345364938167
 20
1928.0
 10
1499.395364938167
 20
1928.0
 10
1499.695364938167
 20
1928.3
 10
1499.995364938167
 20
1928.0
 10
1518.195364938167
 20
1928.0
 42
0.414213562373095
 10
1518.695364938167
 20
1928.5
 10
1518.695364938167
 20
1929.5
 42
0.414213562373095
 10
1518.195364938167
 20
1930.0
 10
1495.495364938167
 20
1930.0
 42
0.4142135623730222
 10
1495.295364938167
 20
1929.8
 10
1495.295364938167
 20
1929.7
 42
-0.4142135623730118
 10
1494.995364938167
 20
1929.4
 10
1493.995364938167
 20
1929.4
 42
-0.4142135623731159
 10
1493.695364938167
 20
1929.7
 10
1493.695364938167
 20
1929.8
 42
0.4142135623731575
 10
1493.495364938167
 20
1930.0
 10
1478.995364938167
 20
1930.0
 42
-0.414213562373095
 10
1478.695364938167
 20
1930.3
 10
1478.695364938167
 20
1931.520245474159
 42
-0.3939104756150996
 10
1478.974437996044
 20
1931.819514689237
 10
1480.91629188029
 20
1931.955302340622
 42
0.3939104756149773
 10
1481.195364938167
 20
1932.2545715557
 10
1481.195364938167
 20
1932.5
 42
0.4142135623730784
 10
1480.695364938167
 20
1933.0
 10
1475.995364938167
 20
1933.0
 42
0.414213562373095
 10
1475.695364938167
 20
1932.7
 10
1475.695364938167
 20
1931.3
 42
-0.4142135623731034
 10
1475.195364938167
 20
1930.8
 42
0.414213562373095
 10
1474.695364938167
 20
1930.3
 10
1474.695364938167
 20
1929.1
 42
0.1321217801717718
 10
1474.735834514687
 20
1928.949520900826
 42
0.0745948980827436
 10
1474.791417321509
 20
1928.879987796567
 42
0.1890875373103184
 10
1474.995364938167
 20
1928.8
 10
1475.495364938167
 20
1928.8
 42
-0.414213562373095
 10
1475.695364938167
 20
1928.6
 10
1475.695364938167
 20
1916.0
 42
-0.4142135623730867
 10
1474.695364938167
 20
1915.0
 10
1461.195364938167
 20
1915.0
 42
-0.414213562373095
 10
1460.195364938167
 20
1916.0
 10
1460.195364938167
 20
1916.966987298108
 42
0.2679491924311069
  0
LWPOLYLINE
  5
A8
330
1F
100
AcDbEntity
  8
FEIN
  6
Continuous
 62
     7
100
AcDbPolyline
 90
        8
 70
     1
 43
0.0
 10
1474.695364938167
 20
1912.5
 42
-0.4142135623730929
 10
1475.695364938167
 20
1911.5
 10
1475.695364938167
 20
1901.5
 42
-0.414213562373095
 10
1474.695364938167
 20
1900.5
 10
1461.195364938167
 20
1900.5
 42
-0.414213562373095
 10
1460.195364938167
 20
1901.5
 10
1460.195364938167
 20
1911.5
 42
-0.414213562373095
 10
1461.195364938167
 20
1912.5
  0
HATCH
  5
AD
330
1F
100
AcDbEntity
  8
FEIN
 62
   254
420
 13421772
 48
0.3333333432674408
100
AcDbHatch
 10
0.0
 20
0.0
 30
0.0
210
0.0
220
0.0
230
1.0
  2
SOLID
 70
     1
 71
     0
 91
        1
 92
       18
 72
     1
 73
     1
 93
       89
 10
1521.695364938167
 20
1873.299999999999
 42
0.0
 10
1521.695364938167
 20
1922.199999999999
 42
-0.4142135623730835
 10
1521.995364938166
 20
1922.499999999999
 42
0.0
 10
1528.395364938167
 20
1922.499999999999
 42
0.414213562373095
 10
1528.695364938167
 20
1922.799999999999
 42
0.0
 10
1528.695364938167
 20
1923.799999999999
 42
0.414213562373095
 10
1528.395364938167
 20
1924.099999999999
 42
0.0
 10
1525.995364938167
 20
1924.099999999999
 42
-0.414213562373095
 10
1525.695364938167
 20
1924.399999999999
 42
0.0
 10
1525.695364938167
 20
1924.799999999998
 42
0.414213562373095
 10
1525.395364938167
 20
1925.099999999998
 42
0.0
 10
1524.795364938167
 20
1925.099999999998
 42
0.414213562373095
 10
1524.495364938167
 20
1924.799999999998
 42
0.0
 10
1524.495364938167
 20
1924.399999999999
 42
-0.414213562373095
 10
1524.195364938167
 20
1924.099999999999
 42
0.0
 10
1521.995364938166
 20
1924.099999999999
 42
-0.414213562373095
 10
1521.695364938167
 20
1924.399999999999
 42
0.0
 10
1521.695364938167
 20
1925.399999999999
 42
-0.414213562373095
 10
1522.695364938167
 20
1926.399999999999
 42
0.0
 10
1523.995364938167
 20
1926.399999999999
 42
0.414213562373095
 10
1524.495364938167
 20
1926.899999999999
 42
0.0
 10
1524.495364938167
 20
1927.499999999999
 42
-0.414213562373095
 10
1524.995364938167
 20
1927.999999999999
 42
0.0
 10
1543.395364938167
 20
1927.999999999999
 42
0.0
 10
1543.695364938167
 20
1928.299999999999
 42
0.0
 10
1543.995364938167
 20
1927.999999999999
 42
0.0
 10
1562.195364938167
 20
1927.999999999999
 42
0.414213562373095
 10
1562.695364938167
 20
1928.499999999999
 42
0.0
 10
1562.695364938167
 20
1929.499999999999
 42
0.414213562373095
 10
1562.195364938167
 20
1929.999999999999
 42
0.0
 10
1539.295364938167
 20
1929.999999999999
 42
0.0
 10
1539.295364938167
 20
1929.699999999999
 42
-0.414213562373095
 10
1538.995364938167
 20
1929.399999999999
 42
0.0
 10
1537.995364938167
 20
1929.399999999999
 42
-0.414213562373095
 10
1537.695364938167
 20
1929.699999999999
 42
0.0
 10
1537.695364938167
 20
1929.999999999999
 42
0.0
 10
1522.995364938167
 20
1929.999999999999
 42
-0.414213562373095
 10
1522.695364938167
 20
1930.299999999999
 42
0.0
 10
1522.695364938167
 20
1931.499999999999
 42
-0.3939104756149434
 10
1522.974437996044
 20
1931.799269215077
 42
0.0
 10
1524.91629188029
 20
1931.935056866463
 42
0.3939104756149329
 10
1525.195364938167
 20
1932.234326081541
 42
0.0
 10
1525.195364938167
 20
1932.499999999999
 42
0.414213562373095
 10
1524.695364938167
 20
1932.999999999999
 42
0.0
 10
1499.995364938167
 20
1932.999999999999
 42
0.0
 10
1499.695364938167
 20
1932.699999999999
 42
0.0
 10
1499.395364938167
 20
1932.999999999999
 42
0.0
 10
1483.43894756962
 20
1932.999999999999
 42
0.3306820039868417
 10
1482.960306779722
 20
1932.644578678392
 42
-0.3114293452558363
 10
1482.072781673671
 20
1931.936171984918
 42
0.0
 10
1479.160486701295
 20
1931.73252448206
 42
0.3939104756149427
 10
1478.695364938167
 20
1931.23374245693
 42
0.0
 10
1478.695364938167
 20
1930.499999999999
 42
0.4142135623731003
 10
1479.195364938167
 20
1929.999999999999
 42
0.0
 10
1493.745364938167
 20
1929.999999999999
 42
0.0
 10
1493.745364938167
 20
1929.799999999999
 42
0.4142135623731065
 10
1494.045364938167
 20
1929.499999999999
 42
0.0
 10
1494.945364938167
 20
1929.499999999999
 42
0.4142135623731065
 10
1495.245364938167
 20
1929.799999999999
 42
0.0
 10
1495.245364938167
 20
1929.999999999999
 42
0.0
 10
1518.395364938167
 20
1929.999999999999
 42
-0.4142135623731065
 10
1518.695364938167
 20
1929.699999999999
 42
0.0
 10
1518.695364938167
 20
1928.200732569424
 42
-0.3939104756149436
 10
1518.41629188029
 20
1927.901463354346
 42
0.0
 10
1517.360486701295
 20
1927.827634264145
 42
0.3939104756149279
 10
1516.895364938167
 20
1927.328852239015
 42
0.0
 10
1516.895364938167
 20
1926.899999999999
 42
0.414213562373095
 10
1517.395364938167
 20
1926.399999999999
 42
0.0
 10
1518.695364938167
 20
1926.399999999999
 42
-0.414213562373095
 10
1519.695364938167
 20
1925.399999999999
 42
0.0
 10
1519.695364938167
 20
1924.399999999999
 42
-0.414213562373095
 10
1519.395364938168
 20
1924.099999999999
 42
0.0
 10
1517.195364938167
 20
1924.099999999999
 42
-0.414213562373095
 10
1516.895364938167
 20
1924.399999999999
 42
0.0
 10
1516.895364938167
 20
1924.799999999998
 42
0.414213562373095
 10
1516.595364938167
 20
1925.099999999998
 42
0.0
 10
1515.995364938167
 20
1925.099999999998
 42
0.414213562373095
 10
1515.695364938167
 20
1924.799999999998
 42
0.0
 10
1515.695364938167
 20
1924.399999999999
 42
-0.4142135623731065
 10
1515.395364938167
 20
1924.099999999999
 42
0.0
 10
1512.995364938167
 20
1924.099999999999
 42
0.414213562373095
 10
1512.695364938167
 20
1923.799999999999
 42
0.0
 10
1512.695364938167
 20
1922.799999999999
 42
0.414213562373095
 10
1512.995364938167
 20
1922.499999999999
 42
0.0
 10
1519.395364938168
 20
1922.499999999999
 42
-0.414213562373095
 10
1519.695364938167
 20
1922.199999999999
 42
0.0
 10
1519.695364938167
 20
1873.299999999999
 42
0.414213562373095
 10
1519.995364938167
 20
1872.999999999999
 42
0.0
 10
1521.395364938167
 20
1872.999999999999
 42
0.414213562373095
 97
        0
 75
     0
 76
     1
 98
        0
  0
LWPOLYLINE
  5
BE
330
1F
100
AcDbEntity
  8
FEIN
 62
   254
420
 13421772
 60
     1
 48
0.3333333432674408
100
AcDbPolyline
 90
       89
 70
     1
 43
0.0
 10
1521.695364938167
 20
1873.299999999999
 10
1521.695364938167
 20
1922.199999999999
 42
-0.4142135623730835
 10
1521.995364938166
 20
1922.499999999999
 10
1528.395364938167
 20
1922.499999999999
 42
0.414213562373095
 10
1528.695364938167
 20
1922.799999999999
 10
1528.695364938167
 20
1923.799999999999
 42
0.414213562373095
 10
1528.395364938167
 20
1924.099999999999
 10
1525.995364938167
 20
1924.099999999999
 42
-0.414213562373095
 10
1525.695364938167
 20
1924.399999999999
 10
1525.695364938167
 20
1924.799999999998
 42
0.414213562373095
 10
1525.395364938167
 20
1925.099999999998
 10
1524.795364938167
 20
1925.099999999998
 42
0.414213562373095
 10
1524.495364938167
 20
1924.799999999998
 10
1524.495364938167
 20
1924.399999999999
 42
-0.414213562373095
 10
1524.195364938167
 20
1924.099999999999
 10
1521.995364938166
 20
1924.099999999999
 42
-0.414213562373095
 10
1521.695364938167
 20
1924.399999999999
 10
1521.695364938167
 20
1925.399999999999
 42
-0.414213562373095
 10
1522.695364938167
 20
1926.399999999999
 10
1523.995364938167
 20
1926.399999999999
 42
0.414213562373095
 10
1524.495364938167
 20
1926.899999999999
 10
1524.495364938167
 20
1927.499999999999
 42
-0.414213562373095
 10
1524.995364938167
 20
1927.999999999999
 10
1543.395364938167
 20
1927.999999999999
 10
1543.695364938167
 20
1928.299999999999
 10
1543.995364938167
 20
1927.999999999999
 10
1562.195364938167
 20
1927.999999999999
 42
0.414213562373095
 10
1562.695364938167
 20
1928.499999999999
 10
1562.695364938167
 20
1929.499999999999
 42
0.414213562373095
 10
1562.195364938167
 20
1929.999999999999
 10
1539.295364938167
 20
1929.999999999999
 10
1539.295364938167
 20
1929.699999999999
 42
-0.414213562373095
 10
1538.995364938167
 20
1929.399999999999
 10
1537.995364938167
 20
1929.399999999999
 42
-0.414213562373095
 10
1537.695364938167
 20
1929.699999999999
 10
1537.695364938167
 20
1929.999999999999
 10
1522.995364938167
 20
1929.999999999999
 42
-0.414213562373095
 10
1522.695364938167
 20
1930.299999999999
 10
1522.695364938167
 20
1931.499999999999
 42
-0.3939104756149434
 10
1522.974437996044
 20
1931.799269215077
 10
1524.91629188029
 20
1931.935056866463
 42
0.3939104756149329
 10
1525.195364938167
 20
1932.234326081541
 10
1525.195364938167
 20
1932.499999999999
 42
0.414213562373095
 10
1524.695364938167
 20
1932.999999999999
 10
1499.995364938167
 20
1932.999999999999
 10
1499.695364938167
 20
1932.699999999999
 10
1499.395364938167
 20
1932.999999999999
 10
1483.43894756962
 20
1932.999999999999
 42
0.3306820039868417
 10
1482.960306779722
 20
1932.644578678392
 42
-0.3114293452558363
 10
1482.072781673671
 20
1931.936171984918
 10
1479.160486701295
 20
1931.73252448206
 42
0.3939104756149427
 10
1478.695364938167
 20
1931.23374245693
 10
1478.695364938167
 20
1930.499999999999
 42
0.4142135623731003
 10
1479.195364938167
 20
1929.999999999999
 10
1493.745364938167
 20
1929.999999999999
 10
1493.745364938167
 20
1929.799999999999
 42
0.4142135623731065
 10
1494.045364938167
 20
1929.499999999999
 10
1494.945364938167
 20
1929.499999999999
 42
0.4142135623731065
 10
1495.245364938167
 20
1929.799999999999
 10
1495.245364938167
 20
1929.999999999999
 10
1518.395364938167
 20
1929.999999999999
 42
-0.4142135623731065
 10
1518.695364938167
 20
1929.699999999999
 10
1518.695364938167
 20
1928.200732569424
 42
-0.3939104756149436
 10
1518.41629188029
 20
1927.901463354346
 10
1517.360486701295
 20
1927.827634264145
 42
0.3939104756149279
 10
1516.895364938167
 20
1927.328852239015
 10
1516.895364938167
 20
1926.899999999999
 42
0.414213562373095
 10
1517.395364938167
 20
1926.399999999999
 10
1518.695364938167
 20
1926.399999999999
 42
-0.414213562373095
 10
1519.695364938167
 20
1925.399999999999
 10
1519.695364938167
 20
1924.399999999999
 42
-0.414213562373095
 10
1519.395364938168
 20
1924.099999999999
 10
1517.195364938167
 20
1924.099999999999
 42
-0.414213562373095
 10
1516.895364938167
 20
1924.399999999999
 10
1516.895364938167
 20
1924.799999999998
 42
0.414213562373095
 10
1516.595364938167
 20
1925.099999999998
 10
1515.995364938167
 20
1925.099999999998
 42
0.414213562373095
 10
1515.695364938167
 20
1924.799999999998
 10
1515.695364938167
 20
1924.399999999999
 42
-0.4142135623731065
 10
1515.395364938167
 20
1924.099999999999
 10
1512.995364938167
 20
1924.099999999999
 42
0.414213562373095
 10
1512.695364938167
 20
1923.799999999999
 10
1512.695364938167
 20
1922.799999999999
 42
0.414213562373095
 10
1512.995364938167
 20
1922.499999999999
 10
1519.395364938168
 20
1922.499999999999
 42
-0.414213562373095
 10
1519.695364938167
 20
1922.199999999999
 10
1519.695364938167
 20
1873.299999999999
 42
0.414213562373095
 10
1519.995364938167
 20
1872.999999999999
 10
1521.395364938167
 20
1872.999999999999
 42
0.414213562373095
  0
LWPOLYLINE
  5
AE
330
1F
100
AcDbEntity
  8
FEIN
 48
0.3333333432674408
100
AcDbPolyline
 90
       89
 70
     1
 43
0.0
 10
1521.695364938167
 20
1873.299999999999
 10
1521.695364938167
 20
1922.199999999999
 42
-0.4142135623730835
 10
1521.995364938166
 20
1922.499999999999
 10
1528.395364938167
 20
1922.499999999999
 42
0.414213562373095
 10
1528.695364938167
 20
1922.799999999999
 10
1528.695364938167
 20
1923.799999999999
 42
0.414213562373095
 10
1528.395364938167
 20
1924.099999999999
 10
1525.995364938167
 20
1924.099999999999
 42
-0.414213562373095
 10
1525.695364938167
 20
1924.399999999999
 10
1525.695364938167
 20
1924.799999999998
 42
0.414213562373095
 10
1525.395364938167
 20
1925.099999999998
 10
1524.795364938167
 20
1925.099999999998
 42
0.414213562373095
 10
1524.495364938167
 20
1924.799999999998
 10
1524.495364938167
 20
1924.399999999999
 42
-0.414213562373095
 10
1524.195364938167
 20
1924.099999999999
 10
1521.995364938166
 20
1924.099999999999
 42
-0.414213562373095
 10
1521.695364938167
 20
1924.399999999999
 10
1521.695364938167
 20
1925.399999999999
 42
-0.414213562373095
 10
1522.695364938167
 20
1926.399999999999
 10
1523.995364938167
 20
1926.399999999999
 42
0.414213562373095
 10
1524.495364938167
 20
1926.899999999999
 10
1524.495364938167
 20
1927.499999999999
 42
-0.414213562373095
 10
1524.995364938167
 20
1927.999999999999
 10
1543.395364938167
 20
1927.999999999999
 10
1543.695364938167
 20
1928.299999999999
 10
1543.995364938167
 20
1927.999999999999
 10
1562.195364938167
 20
1927.999999999999
 42
0.414213562373095
 10
1562.695364938167
 20
1928.499999999999
 10
1562.695364938167
 20
1929.499999999999
 42
0.414213562373095
 10
1562.195364938167
 20
1929.999999999999
 10
1539.295364938167
 20
1929.999999999999
 10
1539.295364938167
 20
1929.699999999999
 42
-0.414213562373095
 10
1538.995364938167
 20
1929.399999999999
 10
1537.995364938167
 20
1929.399999999999
 42
-0.414213562373095
 10
1537.695364938167
 20
1929.699999999999
 10
1537.695364938167
 20
1929.999999999999
 10
1522.995364938167
 20
1929.999999999999
 42
-0.414213562373095
 10
1522.695364938167
 20
1930.299999999999
 10
1522.695364938167
 20
1931.499999999999
 42
-0.3939104756149434
 10
1522.974437996044
 20
1931.799269215077
 10
1524.91629188029
 20
1931.935056866463
 42
0.3939104756149329
 10
1525.195364938167
 20
1932.234326081541
 10
1525.195364938167
 20
1932.499999999999
 42
0.414213562373095
 10
1524.695364938167
 20
1932.999999999999
 10
1499.995364938167
 20
1932.999999999999
 10
1499.695364938167
 20
1932.699999999999
 10
1499.395364938167
 20
1932.999999999999
 10
1483.43894756962
 20
1932.999999999999
 42
0.3306820039868417
 10
1482.960306779722
 20
1932.644578678392
 42
-0.3114293452558363
 10
1482.072781673671
 20
1931.936171984918
 10
1479.160486701295
 20
1931.73252448206
 42
0.3939104756149427
 10
1478.695364938167
 20
1931.23374245693
 10
1478.695364938167
 20
1930.499999999999
 42
0.4142135623731003
 10
1479.195364938167
 20
1929.999999999999
 10
1493.745364938167
 20
1929.999999999999
 10
1493.745364938167
 20
1929.799999999999
 42
0.4142135623731065
 10
1494.045364938167
 20
1929.499999999999
 10
1494.945364938167
 20
1929.499999999999
 42
0.4142135623731065
 10
1495.245364938167
 20
1929.799999999999
 10
1495.245364938167
 20
1929.999999999999
 10
1518.395364938167
 20
1929.999999999999
 42
-0.4142135623731065
 10
1518.695364938167
 20
1929.699999999999
 10
1518.695364938167
 20
1928.200732569424
 42
-0.3939104756149436
 10
1518.41629188029
 20
1927.901463354346
 10
1517.360486701295
 20
1927.827634264145
 42
0.3939104756149279
 10
1516.895364938167
 20
1927.328852239015
 10
1516.895364938167
 20
1926.899999999999
 42
0.414213562373095
 10
1517.395364938167
 20
1926.399999999999
 10
1518.695364938167
 20
1926.399999999999
 42
-0.414213562373095
 10
1519.695364938167
 20
1925.399999999999
 10
1519.695364938167
 20
1924.399999999999
 42
-0.414213562373095
 10
1519.395364938168
 20
1924.099999999999
 10
1517.195364938167
 20
1924.099999999999
 42
-0.414213562373095
 10
1516.895364938167
 20
1924.399999999999
 10
1516.895364938167
 20
1924.799999999998
 42
0.414213562373095
 10
1516.595364938167
 20
1925.099999999998
 10
1515.995364938167
 20
1925.099999999998
 42
0.414213562373095
 10
1515.695364938167
 20
1924.799999999998
 10
1515.695364938167
 20
1924.399999999999
 42
-0.4142135623731065
 10
1515.395364938167
 20
1924.099999999999
 10
1512.995364938167
 20
1924.099999999999
 42
0.414213562373095
 10
1512.695364938167
 20
1923.799999999999
 10
1512.695364938167
 20
1922.799999999999
 42
0.414213562373095
 10
1512.995364938167
 20
1922.499999999999
 10
1519.395364938168
 20
1922.499999999999
 42
-0.414213562373095
 10
1519.695364938167
 20
1922.199999999999
 10
1519.695364938167
 20
1873.299999999999
 42
0.414213562373095
 10
1519.995364938167
 20
1872.999999999999
 10
1521.395364938167
 20
1872.999999999999
 42
0.414213562373095
  0
HATCH
  5
AF
330
1F
100
AcDbEntity
  8
FEIN
 62
   254
420
 13421772
 48
0.5
100
AcDbHatch
 10
0.0
 20
0.0
 30
0.0
210
0.0
220
0.0
230
1.0
  2
SOLID
 70
     1
 71
     0
 91
        1
 92
       18
 72
     1
 73
     1
 93
       60
 10
1562.682591534699
 20
1929.699999999999
 42
0.0
 10
1562.682591534699
 20
1928.199770599948
 42
-0.3939104756149457
 10
1562.403518476822
 20
1927.90050138487
 42
0.0
 10
1561.133383239778
 20
1927.811684877006
 42
0.1473837716506253
 10
1559.991503823875
 20
1926.978301451056
 42
0.4187904109049907
 10
1560.098531364683
 20
1926.564353176337
 42
0.0
 10
1560.626548042034
 20
1926.258807523917
 42
0.3589714747272201
 10
1561.002977351733
 20
1926.321373718613
 42
-0.0141413640309499
 10
1561.050909344376
 20
1926.373335045903
 42
0.1730356836663313
 10
1561.135078936682
 20
1926.556530681829
 42
-0.2611842625529236
 10
1561.300496897585
 20
1926.798860735132
 42
-0.2350226135546912
 10
1562.592275434576
 20
1926.797844559414
 42
-0.2611842625528785
 10
1562.757311933816
 20
1926.555254554588
 42
0.1730356836662915
 10
1562.841193200966
 20
1926.371926721697
 42
-0.0133900538511248
 10
1562.886576083381
 20
1926.32272178637
 42
0.1730356836675285
 10
1563.062538423886
 20
1926.224322518
 42
-0.2611842625546094
 10
1563.291021868157
 20
1926.040251139948
 42
-0.1941495908692867
 10
1563.289019397581
 20
1924.955089579073
 42
-0.2611842625545828
 10
1563.059858170412
 20
1924.771862701989
 42
0.1730356836675638
 10
1562.883533873195
 20
1924.674113515276
 42
-0.0120132907910476
 10
1562.842774454651
 20
1924.630004474081
 42
0.1730356836663207
 10
1562.759226162151
 20
1924.446524654722
 42
-0.2611842625529862
 10
1562.594630363312
 20
1924.203635421681
 42
-0.2494948871031386
 10
1561.232775112248
 20
1924.237331130451
 42
-0.1938950085994804
 10
1561.13474077308
 20
1924.439010137456
 42
0.1776403097576467
 10
1561.050283039897
 20
1924.627610336776
 42
-0.0140263259722257
 10
1561.002765944182
 20
1924.679172303421
 42
0.358487266049958
 10
1560.626798620627
 20
1924.742092758388
 42
0.0
 10
1560.099044088641
 20
1924.438087482682
 42
0.2682136055308738
 10
1559.948787653638
 20
1924.178131977371
 42
0.0
 10
1559.948787653638
 20
1924.100151679859
 42
0.0
 10
1556.995364938167
 20
1924.100151679859
 42
0.4142135623730778
 10
1556.695364938167
 20
1923.800151679859
 42
0.0
 10
1556.695364938167
 20
1922.800151679859
 42
0.414213562373095
 10
1556.995364938167
 20
1922.50015167986
 42
0.0
 10
1563.395364938167
 20
1922.50015167986
 42
-0.4142135623731037
 10
1563.695364938167
 20
1922.20015167986
 42
0.0
 10
1563.695364938167
 20
1873.299999999999
 42
0.414213562373095
 10
1563.995364938167
 20
1872.999999999999
 42
0.0
 10
1565.395364938167
 20
1872.999999999999
 42
0.4142135623731125
 10
1565.695364938167
 20
1873.299999999999
 42
0.0
 10
1565.695364938167
 20
1932.50015167986
 42
0.414213562373095
 10
1565.195364938167
 20
1933.00015167986
 42
0.0
 10
1543.995364938167
 20
1933.00015167986
 42
0.0
 10
1543.695364938167
 20
1932.70015167986
 42
0.0
 10
1543.395364938167
 20
1933.00015167986
 42
0.0
 10
1527.404849304174
 20
1933.00015167986
 42
0.3311822983355778
 10
1526.9259485238
 20
1932.643866823662
 42
-0.3119240601426924
 10
1526.037903436799
 20
1931.933733061007
 42
0.0
 10
1523.160486701295
 20
1931.73252448206
 42
0.3939104756149434
 10
1522.695364938167
 20
1931.23374245693
 42
0.0
 10
1522.695364938167
 20
1930.499999999999
 42
0.414213562373095
 10
1523.195364938167
 20
1929.999999999999
 42
0.0
 10
1537.745364938167
 20
1929.999999999999
 42
0.0
 10
1537.745364938167
 20
1929.799999999999
 42
0.4142135623731036
 10
1538.045364938167
 20
1929.499999999999
 42
0.0
 10
1538.945364938167
 20
1929.499999999999
 42
0.4142135623731039
 10
1539.245364938167
 20
1929.799999999999
 42
0.0
 10
1539.245364938167
 20
1929.999999999999
 42
0.0
 10
1562.382591534699
 20
1929.999999999999
 42
-0.4142135623730863
 97
        0
 75
     0
 76
     1
 98
        0
  0
LWPOLYLINE
  5
BF
330
1F
100
AcDbEntity
  8
FEIN
 62
   254
420
 13421772
 60
     1
 48
0.5
100
AcDbPolyline
 90
       60
 70
     1
 43
0.0
 10
1562.682591534699
 20
1929.699999999999
 10
1562.682591534699
 20
1928.199770599948
 42
-0.3939104756149457
 10
1562.403518476822
 20
1927.90050138487
 10
1561.133383239778
 20
1927.811684877006
 42
0.1473837716506253
 10
1559.991503823875
 20
1926.978301451056
 42
0.4187904109049907
 10
1560.098531364683
 20
1926.564353176337
 10
1560.626548042034
 20
1926.258807523917
 42
0.3589714747272201
 10
1561.002977351733
 20
1926.321373718613
 42
-0.0141413640309499
 10
1561.050909344376
 20
1926.373335045903
 42
0.1730356836663313
 10
1561.135078936682
 20
1926.556530681829
 42
-0.2611842625529236
 10
1561.300496897585
 20
1926.798860735132
 42
-0.2350226135546912
 10
1562.592275434576
 20
1926.797844559414
 42
-0.2611842625528785
 10
1562.757311933816
 20
1926.555254554588
 42
0.1730356836662915
 10
1562.841193200966
 20
1926.371926721697
 42
-0.0133900538511248
 10
1562.886576083381
 20
1926.32272178637
 42
0.1730356836675285
 10
1563.062538423886
 20
1926.224322518
 42
-0.2611842625546094
 10
1563.291021868157
 20
1926.040251139948
 42
-0.1941495908692867
 10
1563.289019397581
 20
1924.955089579073
 42
-0.2611842625545828
 10
1563.059858170412
 20
1924.771862701989
 42
0.1730356836675638
 10
1562.883533873195
 20
1924.674113515276
 42
-0.0120132907910476
 10
1562.842774454651
 20
1924.630004474081
 42
0.1730356836663207
 10
1562.759226162151
 20
1924.446524654722
 42
-0.2611842625529862
 10
1562.594630363312
 20
1924.203635421681
 42
-0.2494948871031386
 10
1561.232775112248
 20
1924.237331130451
 42
-0.1938950085994804
 10
1561.13474077308
 20
1924.439010137456
 42
0.1776403097576467
 10
1561.050283039897
 20
1924.627610336776
 42
-0.0140263259722257
 10
1561.002765944182
 20
1924.679172303421
 42
0.358487266049958
 10
1560.626798620627
 20
1924.742092758388
 10
1560.099044088641
 20
1924.438087482682
 42
0.2682136055308738
 10
1559.948787653638
 20
1924.178131977371
 10
1559.948787653638
 20
1924.100151679859
 10
1556.995364938167
 20
1924.100151679859
 42
0.4142135623730778
 10
1556.695364938167
 20
1923.800151679859
 10
1556.695364938167
 20
1922.800151679859
 42
0.414213562373095
 10
1556.995364938167
 20
1922.50015167986
 10
1563.395364938167
 20
1922.50015167986
 42
-0.4142135623731037
 10
1563.695364938167
 20
1922.20015167986
 10
1563.695364938167
 20
1873.299999999999
 42
0.414213562373095
 10
1563.995364938167
 20
1872.999999999999
 10
1565.395364938167
 20
1872.999999999999
 42
0.4142135623731125
 10
1565.695364938167
 20
1873.299999999999
 10
1565.695364938167
 20
1932.50015167986
 42
0.414213562373095
 10
1565.195364938167
 20
1933.00015167986
 10
1543.995364938167
 20
1933.00015167986
 10
1543.695364938167
 20
1932.70015167986
 10
1543.395364938167
 20
1933.00015167986
 10
1527.404849304174
 20
1933.00015167986
 42
0.3311822983355778
 10
1526.9259485238
 20
1932.643866823662
 42
-0.3119240601426924
 10
1526.037903436799
 20
1931.933733061007
 10
1523.160486701295
 20
1931.73252448206
 42
0.3939104756149434
 10
1522.695364938167
 20
1931.23374245693
 10
1522.695364938167
 20
1930.499999999999
 42
0.414213562373095
 10
1523.195364938167
 20
1929.999999999999
 10
1537.745364938167
 20
1929.999999999999
 10
1537.745364938167
 20
1929.799999999999
 42
0.4142135623731036
 10
1538.045364938167
 20
1929.499999999999
 10
1538.945364938167
 20
1929.499999999999
 42
0.4142135623731039
 10
1539.245364938167
 20
1929.799999999999
 10
1539.245364938167
 20
1929.999999999999
 10
1562.382591534699
 20
1929.999999999999
 42
-0.4142135623730863
  0
LWPOLYLINE
  5
B0
330
1F
100
AcDbEntity
  8
FEIN
 48
0.5
100
AcDbPolyline
 90
       60
 70
     1
 43
0.0
 10
1562.682591534699
 20
1929.699999999999
 10
1562.682591534699
 20
1928.199770599948
 42
-0.3939104756149457
 10
1562.403518476822
 20
1927.90050138487
 10
1561.133383239778
 20
1927.811684877006
 42
0.1473837716506253
 10
1559.991503823875
 20
1926.978301451056
 42
0.4187904109049907
 10
1560.098531364683
 20
1926.564353176337
 10
1560.626548042034
 20
1926.258807523917
 42
0.3589714747272201
 10
1561.002977351733
 20
1926.321373718613
 42
-0.0141413640309499
 10
1561.050909344376
 20
1926.373335045903
 42
0.1730356836663313
 10
1561.135078936682
 20
1926.556530681829
 42
-0.2611842625529236
 10
1561.300496897585
 20
1926.798860735132
 42
-0.2350226135546912
 10
1562.592275434576
 20
1926.797844559414
 42
-0.2611842625528785
 10
1562.757311933816
 20
1926.555254554588
 42
0.1730356836662915
 10
1562.841193200966
 20
1926.371926721697
 42
-0.0133900538511248
 10
1562.886576083381
 20
1926.32272178637
 42
0.1730356836675285
 10
1563.062538423886
 20
1926.224322518
 42
-0.2611842625546094
 10
1563.291021868157
 20
1926.040251139948
 42
-0.1941495908692867
 10
1563.289019397581
 20
1924.955089579073
 42
-0.2611842625545828
 10
1563.059858170412
 20
1924.771862701989
 42
0.1730356836675638
 10
1562.883533873195
 20
1924.674113515276
 42
-0.0120132907910476
 10
1562.842774454651
 20
1924.630004474081
 42
0.1730356836663207
 10
1562.759226162151
 20
1924.446524654722
 42
-0.2611842625529862
 10
1562.594630363312
 20
1924.203635421681
 42
-0.2494948871031386
 10
1561.232775112248
 20
1924.237331130451
 42
-0.1938950085994804
 10
1561.13474077308
 20
1924.439010137456
 42
0.1776403097576467
 10
1561.050283039897
 20
1924.627610336776
 42
-0.0140263259722257
 10
1561.002765944182
 20
1924.679172303421
 42
0.358487266049958
 10
1560.626798620627
 20
1924.742092758388
 10
1560.099044088641
 20
1924.438087482682
 42
0.2682136055308738
 10
1559.948787653638
 20
1924.178131977371
 10
1559.948787653638
 20
1924.100151679859
 10
1556.995364938167
 20
1924.100151679859
 42
0.4142135623730778
 10
1556.695364938167
 20
1923.800151679859
 10
1556.695364938167
 20
1922.800151679859
 42
0.414213562373095
 10
1556.995364938167
 20
1922.50015167986
 10
1563.395364938167
 20
1922.50015167986
 42
-0.4142135623731037
 10
1563.695364938167
 20
1922.20015167986
 10
1563.695364938167
 20
1873.299999999999
 42
0.414213562373095
 10
1563.995364938167
 20
1872.999999999999
 10
1565.395364938167
 20
1872.999999999999
 42
0.4142135623731125
 10
1565.695364938167
 20
1873.299999999999
 10
1565.695364938167
 20
1932.50015167986
 42
0.414213562373095
 10
1565.195364938167
 20
1933.00015167986
 10
1543.995364938167
 20
1933.00015167986
 10
1543.695364938167
 20
1932.70015167986
 10
1543.395364938167
 20
1933.00015167986
 10
1527.404849304174
 20
1933.00015167986
 42
0.3311822983355778
 10
1526.9259485238
 20
1932.643866823662
 42
-0.3119240601426924
 10
1526.037903436799
 20
1931.933733061007
 10
1523.160486701295
 20
1931.73252448206
 42
0.3939104756149434
 10
1522.695364938167
 20
1931.23374245693
 10
1522.695364938167
 20
1930.499999999999
 42
0.414213562373095
 10
1523.195364938167
 20
1929.999999999999
 10
1537.745364938167
 20
1929.999999999999
 10
1537.745364938167
 20
1929.799999999999
 42
0.4142135623731036
 10
1538.045364938167
 20
1929.499999999999
 10
1538.945364938167
 20
1929.499999999999
 42
0.4142135623731039
 10
1539.245364938167
 20
1929.799999999999
 10
1539.245364938167
 20
1929.999999999999
 10
1562.382591534699
 20
1929.999999999999
 42
-0.4142135623730863
  0
HATCH
  5
B1
330
1F
100
AcDbEntity
  8
FEIN
  6
Continuous
 62
   254
420
 13421772
100
AcDbHatch
 10
0.0
 20
0.0
 30
0.0
210
0.0
220
0.0
230
1.0
  2
SOLID
 70
     1
 71
     0
 91
        1
 92
       18
 72
     1
 73
     1
 93
       28
 10
1474.941405056402
 20
1930.773938518368
 42
0.4142135623731533
 10
1475.441405056402
 20
1931.273938518368
 42
0.0
 10
1475.441405056401
 20
1932.373938518368
 42
0.4142135623729287
 10
1475.241405056401
 20
1932.573938518368
 42
0.0
 10
1460.141405056401
 20
1932.573938518368
 42
0.4142135623730377
 10
1459.941405056401
 20
1932.373938518368
 42
0.0
 10
1459.941405056401
 20
1931.273938518368
 42
0.4142135623731533
 10
1460.441405056401
 20
1930.773938518368
 42
0.0
 10
1460.691405056401
 20
1930.773938518368
 42
-0.414213562372965
 10
1460.891405056401
 20
1930.573938518368
 42
0.0
 10
1460.891405056401
 20
1929.384702813429
 42
-0.1316524975874127
 10
1460.757430460186
 20
1928.884702813429
 42
0.0
 10
1460.635745637697
 20
1928.673938518368
 42
0.1989123673796412
 10
1460.435944792687
 20
1927.156300428163
 42
0.0
 10
1460.92294015021
 20
1925.338809010837
 42
0.8769764629927305
 10
1461.891405056401
 20
1925.466309834563
 42
0.0
 10
1461.891405056401
 20
1930.273938518368
 42
-2.414213562373903
 10
1462.191405056401
 20
1930.573938518368
 42
0.0
 10
1473.191405056401
 20
1930.573938518368
 42
-2.414213562371882
 10
1473.491405056401
 20
1930.273938518368
 42
0.0
 10
1473.491405056401
 20
1925.466309834563
 42
0.8769764629927334
 10
1474.459869962593
 20
1925.338809010837
 42
0.0
 10
1474.946865320115
 20
1927.156300428163
 42
0.1989123673796347
 10
1474.747064475106
 20
1928.673938518368
 42
0.0
 10
1474.625379652617
 20
1928.884702813429
 42
-0.1316524975873982
 10
1474.491405056401
 20
1929.384702813429
 42
0.0
 10
1474.491405056401
 20
1930.573938518368
 42
-0.414213562373095
 10
1474.691405056401
 20
1930.773938518368
 42
0.0
 97
        0
 75
     0
 76
     1
 98
        0
  0
LWPOLYLINE
  5
C0
330
1F
100
AcDbEntity
  8
FEIN
  6
Continuous
 62
   254
420
 13421772
 60
     1
100
AcDbPolyline
 90
       28
 70
     1
 43
0.0
 10
1474.941405056402
 20
1930.773938518368
 42
0.4142135623731533
 10
1475.441405056402
 20
1931.273938518368
 10
1475.441405056401
 20
1932.373938518368
 42
0.4142135623729287
 10
1475.241405056401
 20
1932.573938518368
 10
1460.141405056401
 20
1932.573938518368
 42
0.4142135623730377
 10
1459.941405056401
 20
1932.373938518368
 10
1459.941405056401
 20
1931.273938518368
 42
0.4142135623731533
 10
1460.441405056401
 20
1930.773938518368
 10
1460.691405056401
 20
1930.773938518368
 42
-0.414213562372965
 10
1460.891405056401
 20
1930.573938518368
 10
1460.891405056401
 20
1929.384702813429
 42
-0.1316524975874127
 10
1460.757430460186
 20
1928.884702813429
 10
1460.635745637697
 20
1928.673938518368
 42
0.1989123673796412
 10
1460.435944792687
 20
1927.156300428163
 10
1460.92294015021
 20
1925.338809010837
 42
0.8769764629927305
 10
1461.891405056401
 20
1925.466309834563
 10
1461.891405056401
 20
1930.273938518368
 42
-2.414213562373903
 10
1462.191405056401
 20
1930.573938518368
 10
1473.191405056401
 20
1930.573938518368
 42
-2.414213562371882
 10
1473.491405056401
 20
1930.273938518368
 10
1473.491405056401
 20
1925.466309834563
 42
0.8769764629927334
 10
1474.459869962593
 20
1925.338809010837
 10
1474.946865320115
 20
1927.156300428163
 42
0.1989123673796347
 10
1474.747064475106
 20
1928.673938518368
 10
1474.625379652617
 20
1928.884702813429
 42
-0.1316524975873982
 10
1474.491405056401
 20
1929.384702813429
 10
1474.491405056401
 20
1930.573938518368
 42
-0.414213562373095
 10
1474.691405056401
 20
1930.773938518368
  0
LWPOLYLINE
  5
B2
330
1F
100
AcDbEntity
  8
FEIN
  6
Continuous
 62
     7
100
AcDbPolyline
 90
       28
 70
     1
 43
0.0
 10
1474.941405056402
 20
1930.773938518368
 42
0.4142135623731533
 10
1475.441405056402
 20
1931.273938518368
 10
1475.441405056401
 20
1932.373938518368
 42
0.4142135623729287
 10
1475.241405056401
 20
1932.573938518368
 10
1460.141405056401
 20
1932.573938518368
 42
0.4142135623730377
 10
1459.941405056401
 20
1932.373938518368
 10
1459.941405056401
 20
1931.273938518368
 42
0.4142135623731533
 10
1460.441405056401
 20
1930.773938518368
 10
1460.691405056401
 20
1930.773938518368
 42
-0.414213562372965
 10
1460.891405056401
 20
1930.573938518368
 10
1460.891405056401
 20
1929.384702813429
 42
-0.1316524975874127
 10
1460.757430460186
 20
1928.884702813429
 10
1460.635745637697
 20
1928.673938518368
 42
0.1989123673796412
 10
1460.435944792687
 20
1927.156300428163
 10
1460.92294015021
 20
1925.338809010837
 42
0.8769764629927305
 10
1461.891405056401
 20
1925.466309834563
 10
1461.891405056401
 20
1930.273938518368
 42
-2.414213562373903
 10
1462.191405056401
 20
1930.573938518368
 10
1473.191405056401
 20
1930.573938518368
 42
-2.414213562371882
 10
1473.491405056401
 20
1930.273938518368
 10
1473.491405056401
 20
1925.466309834563
 42
0.8769764629927334
 10
1474.459869962593
 20
1925.338809010837
 10
1474.946865320115
 20
1927.156300428163
 42
0.1989123673796347
 10
1474.747064475106
 20
1928.673938518368
 10
1474.625379652617
 20
1928.884702813429
 42
-0.1316524975873982
 10
1474.491405056401
 20
1929.384702813429
 10
1474.491405056401
 20
1930.573938518368
 42
-0.414213562373095
 10
1474.691405056401
 20
1930.773938518368
  0
ENDSEC
  0
SECTION
  2
OBJECTS
  0
DICTIONARY
  5
C
330
0
100
AcDbDictionary
281
     1
  3
ACAD_DETAILVIEWSTYLE
350
C8
  3
ACAD_GROUP
350
D
  3
ACAD_LAYOUT
350
1A
  3
ACAD_MATERIAL
350
43
  3
ACAD_MLEADERSTYLE
350
6B
  3
ACAD_MLINESTYLE
350
17
  3
ACAD_PLOTSETTINGS
350
19
  3
ACAD_PLOTSTYLENAME
350
E
  3
ACAD_SCALELIST
350
47
  3
ACAD_SECTIONVIEWSTYLE
350
C9
  3
ACAD_TABLESTYLE
350
69
  3
ACAD_VISUALSTYLE
350
2A
  3
ACDB_RECOMPOSE_DATA
350
C5
  3
AcDbVariableDictionary
350
C1
  0
SUN
  5
6D
330
29
100
AcDbSun
 90
        1
290
     0
 63
     7
421
 16777215
 40
1.0
291
     1
 91
  2455826
 92
 54000000
292
     0
 70
     2
 71
   256
280
     1
  0
DICTIONARY
  5
C8
102
{ACAD_REACTORS
330
C
102
}
330
C
100
AcDbDictionary
281
     1
  0
DICTIONARY
  5
D
102
{ACAD_REACTORS
330
C
102
}
330
C
100
AcDbDictionary
281
     1
  0
DICTIONARY
  5
1A
102
{ACAD_REACTORS
330
C
102
}
330
C
100
AcDbDictionary
281
     1
  3
Layout1
350
1E
  3
Layout2
350
26
  3
Model
350
22
  0
DICTIONARY
  5
43
102
{ACAD_REACTORS
330
C
102
}
330
C
100
AcDbDictionary
281
     1
  3
ByBlock
350
45
  3
ByLayer
350
44
  3
Global
350
46
  0
DICTIONARY
  5
6B
102
{ACAD_REACTORS
330
C
102
}
330
C
100
AcDbDictionary
281
     1
  3
Standard
350
6C
  0
DICTIONARY
  5
17
102
{ACAD_REACTORS
330
C
102
}
330
C
100
AcDbDictionary
281
     1
  3
Standard
350
18
  0
DICTIONARY
  5
19
102
{ACAD_REACTORS
330
C
102
}
330
C
100
AcDbDictionary
281
     1
  0
ACDBDICTIONARYWDFLT
  5
E
102
{ACAD_REACTORS
330
C
102
}
330
C
100
AcDbDictionary
281
     1
  3
Normal
350
F
100
AcDbDictionaryWithDefault
340
F
  0
DICTIONARY
  5
47
102
{ACAD_REACTORS
330
C
102
}
330
C
100
AcDbDictionary
281
     1
  3
A0
350
48
  3
A1
350
49
  3
A2
350
4A
  3
A3
350
4B
  3
A4
350
4C
  3
A5
350
4D
  3
A6
350
4E
  3
A7
350
4F
  3
A8
350
50
  3
A9
350
51
  3
B0
350
52
  3
B1
350
53
  3
B2
350
54
  3
B3
350
55
  3
B4
350
56
  3
B5
350
57
  3
B6
350
58
  3
B7
350
59
  3
B8
350
5A
  3
B9
350
5B
  3
C0
350
5C
  3
C1
350
5D
  3
C2
350
5E
  3
C3
350
5F
  3
C4
350
60
  3
C5
350
61
  3
C6
350
62
  3
C7
350
63
  3
C8
350
64
  3
C9
350
65
  3
D0
350
66
  3
D1
350
67
  3
D2
350
68
  0
DICTIONARY
  5
C9
102
{ACAD_REACTORS
330
C
102
}
330
C
100
AcDbDictionary
281
     1
  0
DICTIONARY
  5
69
102
{ACAD_REACTORS
330
C
102
}
330
C
100
AcDbDictionary
281
     1
  3
Standard
350
6A
  0
DICTIONARY
  5
2A
102
{ACAD_REACTORS
330
C
102
}
330
C
100
AcDbDictionary
281
     1
  3
2dWireframe
350
2F
  3
Basic
350
32
  3
Brighten
350
36
  3
ColorChange
350
3A
  3
Conceptual
350
34
  3
Dim
350
35
  3
EdgeColorOff
350
3D
  3
Facepattern
350
39
  3
Flat
350
2B
  3
FlatWithEdges
350
2C
  3
Gouraud
350
2D
  3
GouraudWithEdges
350
2E
  3
Hidden
350
31
  3
JitterOff
350
3B
  3
Linepattern
350
38
  3
OverhangOff
350
3C
  3
Realistic
350
33
  3
Shaded
350
42
  3
Shaded with edges
350
41
  3
Shades of Gray
350
3E
  3
Sketchy
350
3F
  3
Thicken
350
37
  3
Wireframe
350
30
  3
X-Ray
350
40
  0
XRECORD
  5
C5
102
{ACAD_REACTORS
330
C
102
}
330
C
100
AcDbXrecord
280
     1
 90
        1
330
6A
  0
DICTIONARY
  5
C1
102
{ACAD_REACTORS
330
C
102
}
330
C
100
AcDbDictionary
281
     1
  3
CANNOSCALE
350
C2
  3
CENTEREXE
350
CA
  3
CENTERLTYPEFILE
350
CB
  3
CMLEADERSTYLE
350
C7
  3
CTABLESTYLE
350
C6
  0
LAYOUT
  5
1E
102
{ACAD_REACTORS
330
1A
102
}
330
1A
100
AcDbPlotSettings
  1

  2
none_device
  4

  6

 40
0.0
 41
0.0
 42
0.0
 43
0.0
 44
0.0
 45
0.0
 46
0.0
 47
0.0
 48
0.0
 49
0.0
140
0.0
141
0.0
142
1.0
143
1.0
 70
   688
 72
     1
 73
     0
 74
     5
  7

 75
    16
 76
     0
 77
     2
 78
   300
147
1.0
148
0.0
149
0.0
100
AcDbLayout
  1
Layout1
 70
     1
 71
     1
 10
0.0
 20
0.0
 11
420.0
 21
297.0
 12
0.0
 22
0.0
 32
0.0
 14
1.000000000000000E+20
 24
1.000000000000000E+20
 34
1.000000000000000E+20
 15
-1.000000000000000E+20
 25
-1.000000000000000E+20
 35
-1.000000000000000E+20
146
0.0
 13
0.0
 23
0.0
 33
0.0
 16
1.0
 26
0.0
 36
0.0
 17
0.0
 27
1.0
 37
0.0
 76
     0
330
1B
  0
LAYOUT
  5
26
102
{ACAD_REACTORS
330
1A
102
}
330
1A
100
AcDbPlotSettings
  1

  2
none_device
  4

  6

 40
0.0
 41
0.0
 42
0.0
 43
0.0
 44
0.0
 45
0.0
 46
0.0
 47
0.0
 48
0.0
 49
0.0
140
0.0
141
0.0
142
1.0
143
1.0
 70
   688
 72
     1
 73
     0
 74
     5
  7

 75
    16
 76
     0
 77
     2
 78
   300
147
1.0
148
0.0
149
0.0
100
AcDbLayout
  1
Layout2
 70
     1
 71
     2
 10
0.0
 20
0.0
 11
0.0
 21
0.0
 12
0.0
 22
0.0
 32
0.0
 14
0.0
 24
0.0
 34
0.0
 15
0.0
 25
0.0
 35
0.0
146
0.0
 13
0.0
 23
0.0
 33
0.0
 16
1.0
 26
0.0
 36
0.0
 17
0.0
 27
1.0
 37
0.0
 76
     0
330
23
  0
LAYOUT
  5
22
102
{ACAD_REACTORS
330
1A
102
}
330
1A
100
AcDbPlotSettings
  1

  2
none_device
  4
Letter_(8.50_x_11.00_Inches)
  6

 40
6.35
 41
6.35
 42
6.35000508
 43
6.35000508
 44
215.9
 45
279.4
 46
0.0
 47
0.0
 48
0.0
 49
0.0
140
0.0
141
0.0
142
1.0
143
1.0
 70
  1712
 72
     1
 73
     0
 74
     0
  7

 75
     0
 76
     0
 77
     2
 78
   300
147
1.0
148
0.0
149
0.0
100
AcDbLayout
  1
Model
 70
     1
 71
     0
 10
0.0
 20
0.0
 11
420.0
 21
297.0
 12
0.0
 22
0.0
 32
0.0
 14
1.000000000000000E+20
 24
1.000000000000000E+20
 34
1.000000000000000E+20
 15
-1.000000000000000E+20
 25
-1.000000000000000E+20
 35
-1.000000000000000E+20
146
0.0
 13
0.0
 23
0.0
 33
0.0
 16
1.0
 26
0.0
 36
0.0
 17
0.0
 27
1.0
 37
0.0
 76
     0
330
1F
331
29
  0
MATERIAL
  5
45
102
{ACAD_REACTORS
330
43
102
}
330
43
100
AcDbMaterial
  1
ByBlock
 72
     1
 94
      127
  0
MATERIAL
  5
44
102
{ACAD_REACTORS
330
43
102
}
330
43
100
AcDbMaterial
  1
ByLayer
 72
     1
 94
      127
  0
MATERIAL
  5
46
102
{ACAD_REACTORS
330
43
102
}
330
43
100
AcDbMaterial
  1
Global
 72
     1
 94
      127
  0
MLEADERSTYLE
  5
6C
102
{ACAD_REACTORS
330
6B
102
}
330
6B
100
AcDbMLeaderStyle
179
     2
170
     2
171
     1
172
     0
 90
        2
 40
0.0
 41
0.0
173
     1
 91
-1056964608
340
14
 92
       -2
290
     1
 42
2.0
291
     1
 43
8.0
  3
Standard
341
0
 44
4.0
300

342
11
174
     1
178
     6
175
     1
176
     0
 93
-1056964608
 45
4.0
292
     0
297
     0
 46
4.0
343
0
 94
-1056964608
 47
1.0
 49
1.0
140
1.0
293
     1
141
0.0
294
     1
177
     0
142
1.0
295
     0
296
     0
143
3.75
271
     0
272
     9
273
     9
298
     0
  0
MLINESTYLE
  5
18
102
{ACAD_REACTORS
330
17
102
}
330
17
100
AcDbMlineStyle
  2
Standard
 70
     0
  3

 62
   256
 51
90.0
 52
90.0
 71
     2
 49
0.5
 62
   256
  6
BYLAYER
 49
-0.5
 62
   256
  6
BYLAYER
  0
ACDBPLACEHOLDER
  5
F
102
{ACAD_REACTORS
330
E
102
}
330
E
  0
SCALE
  5
48
102
{ACAD_REACTORS
330
47
102
}
330
47
100
AcDbScale
 70
     0
300
1:1
140
1.0
141
1.0
290
     1
  0
SCALE
  5
49
102
{ACAD_REACTORS
330
47
102
}
330
47
100
AcDbScale
 70
     0
300
1:2
140
1.0
141
2.0
290
     0
  0
SCALE
  5
4A
102
{ACAD_REACTORS
330
47
102
}
330
47
100
AcDbScale
 70
     0
300
1:4
140
1.0
141
4.0
290
     0
  0
SCALE
  5
4B
102
{ACAD_REACTORS
330
47
102
}
330
47
100
AcDbScale
 70
     0
300
1:5
140
1.0
141
5.0
290
     0
  0
SCALE
  5
4C
102
{ACAD_REACTORS
330
47
102
}
330
47
100
AcDbScale
 70
     0
300
1:8
140
1.0
141
8.0
290
     0
  0
SCALE
  5
4D
102
{ACAD_REACTORS
330
47
102
}
330
47
100
AcDbScale
 70
     0
300
1:10
140
1.0
141
10.0
290
     0
  0
SCALE
  5
4E
102
{ACAD_REACTORS
330
47
102
}
330
47
100
AcDbScale
 70
     0
300
1:16
140
1.0
141
16.0
290
     0
  0
SCALE
  5
4F
102
{ACAD_REACTORS
330
47
102
}
330
47
100
AcDbScale
 70
     0
300
1:20
140
1.0
141
20.0
290
     0
  0
SCALE
  5
50
102
{ACAD_REACTORS
330
47
102
}
330
47
100
AcDbScale
 70
     0
300
1:30
140
1.0
141
30.0
290
     0
  0
SCALE
  5
51
102
{ACAD_REACTORS
330
47
102
}
330
47
100
AcDbScale
 70
     0
300
1:40
140
1.0
141
40.0
290
     0
  0
SCALE
  5
52
102
{ACAD_REACTORS
330
47
102
}
330
47
100
AcDbScale
 70
     0
300
1:50
140
1.0
141
50.0
290
     0
  0
SCALE
  5
53
102
{ACAD_REACTORS
330
47
102
}
330
47
100
AcDbScale
 70
     0
300
1:100
140
1.0
141
100.0
290
     0
  0
SCALE
  5
54
102
{ACAD_REACTORS
330
47
102
}
330
47
100
AcDbScale
 70
     0
300
2:1
140
2.0
141
1.0
290
     0
  0
SCALE
  5
55
102
{ACAD_REACTORS
330
47
102
}
330
47
100
AcDbScale
 70
     0
300
4:1
140
4.0
141
1.0
290
     0
  0
SCALE
  5
56
102
{ACAD_REACTORS
330
47
102
}
330
47
100
AcDbScale
 70
     0
300
8:1
140
8.0
141
1.0
290
     0
  0
SCALE
  5
57
102
{ACAD_REACTORS
330
47
102
}
330
47
100
AcDbScale
 70
     0
300
10:1
140
10.0
141
1.0
290
     0
  0
SCALE
  5
58
102
{ACAD_REACTORS
330
47
102
}
330
47
100
AcDbScale
 70
     0
300
100:1
140
100.0
141
1.0
290
     0
  0
SCALE
  5
59
102
{ACAD_REACTORS
330
47
102
}
330
47
100
AcDbScale
 70
     0
300
1/128" = 1'-0"
140
0.0078125
141
12.0
290
     0
  0
SCALE
  5
5A
102
{ACAD_REACTORS
330
47
102
}
330
47
100
AcDbScale
 70
     0
300
1/64" = 1'-0"
140
0.015625
141
12.0
290
     0
  0
SCALE
  5
5B
102
{ACAD_REACTORS
330
47
102
}
330
47
100
AcDbScale
 70
     0
300
1/32" = 1'-0"
140
0.03125
141
12.0
290
     0
  0
SCALE
  5
5C
102
{ACAD_REACTORS
330
47
102
}
330
47
100
AcDbScale
 70
     0
300
1/16" = 1'-0"
140
0.0625
141
12.0
290
     0
  0
SCALE
  5
5D
102
{ACAD_REACTORS
330
47
102
}
330
47
100
AcDbScale
 70
     0
300
3/32" = 1'-0"
140
0.09375
141
12.0
290
     0
  0
SCALE
  5
5E
102
{ACAD_REACTORS
330
47
102
}
330
47
100
AcDbScale
 70
     0
300
1/8" = 1'-0"
140
0.125
141
12.0
290
     0
  0
SCALE
  5
5F
102
{ACAD_REACTORS
330
47
102
}
330
47
100
AcDbScale
 70
     0
300
3/16" = 1'-0"
140
0.1875
141
12.0
290
     0
  0
SCALE
  5
60
102
{ACAD_REACTORS
330
47
102
}
330
47
100
AcDbScale
 70
     0
300
1/4" = 1'-0"
140
0.25
141
12.0
290
     0
  0
SCALE
  5
61
102
{ACAD_REACTORS
330
47
102
}
330
47
100
AcDbScale
 70
     0
300
3/8" = 1'-0"
140
0.375
141
12.0
290
     0
  0
SCALE
  5
62
102
{ACAD_REACTORS
330
47
102
}
330
47
100
AcDbScale
 70
     0
300
1/2" = 1'-0"
140
0.5
141
12.0
290
     0
  0
SCALE
  5
63
102
{ACAD_REACTORS
330
47
102
}
330
47
100
AcDbScale
 70
     0
300
3/4" = 1'-0"
140
0.75
141
12.0
290
     0
  0
SCALE
  5
64
102
{ACAD_REACTORS
330
47
102
}
330
47
100
AcDbScale
 70
     0
300
1" = 1'-0"
140
1.0
141
12.0
290
     0
  0
SCALE
  5
65
102
{ACAD_REACTORS
330
47
102
}
330
47
100
AcDbScale
 70
     0
300
1-1/2" = 1'-0"
140
1.5
141
12.0
290
     0
  0
SCALE
  5
66
102
{ACAD_REACTORS
330
47
102
}
330
47
100
AcDbScale
 70
     0
300
3" = 1'-0"
140
3.0
141
12.0
290
     0
  0
SCALE
  5
67
102
{ACAD_REACTORS
330
47
102
}
330
47
100
AcDbScale
 70
     0
300
6" = 1'-0"
140
6.0
141
12.0
290
     0
  0
SCALE
  5
68
102
{ACAD_REACTORS
330
47
102
}
330
47
100
AcDbScale
 70
     0
300
1'-0" = 1'-0"
140
12.0
141
12.0
290
     0
  0
TABLESTYLE
  5
6A
102
{ACAD_REACTORS
330
69
102
}
102
{ACAD_XDICTIONARY
360
C3
102
}
330
69
100
AcDbTableStyle
  3
Standard
 70
     0
 71
     0
 40
0.06
 41
0.06
280
     0
281
     0
  7
Standard
140
4.5
170
     2
 62
     0
 63
   257
283
     0
 90
        4
 91
        0
  1

274
    -2
284
     1
 64
     0
275
    -2
285
     1
 65
     0
276
    -2
286
     1
 66
     0
277
    -2
287
     1
 67
     0
278
    -2
288
     1
 68
     0
279
    -2
289
     1
 69
     0
  7
Standard
140
6.0
170
     5
 62
     0
 63
   257
283
     0
 90
        4
 91
        0
  1

274
    -2
284
     1
 64
     0
275
    -2
285
     1
 65
     0
276
    -2
286
     1
 66
     0
277
    -2
287
     1
 67
     0
278
    -2
288
     1
 68
     0
279
    -2
289
     1
 69
     0
  7
Standard
140
4.5
170
     5
 62
     0
 63
   257
283
     0
 90
        4
 91
        0
  1

274
    -2
284
     1
 64
     0
275
    -2
285
     1
 65
     0
276
    -2
286
     1
 66
     0
277
    -2
287
     1
 67
     0
278
    -2
288
     1
 68
     0
279
    -2
289
     1
 69
     0
  0
VISUALSTYLE
  5
2F
102
{ACAD_REACTORS
330
2A
102
}
330
2A
100
AcDbVisualStyle
  2
2dWireframe
 70
     4
177
     3
291
     0
 70
    58
 90
        0
176
     1
 90
        2
176
     1
 90
        0
176
     1
 90
        0
176
     1
 40
0.6
176
     1
 40
30.0
176
     1
 62
     7
420
 16777215
176
     1
 90
        1
176
     1
 90
        4
176
     1
 62
     7
176
     1
 62
   257
176
     1
 90
        1
176
     1
 90
        1
176
     1
 40
1.0
176
     1
 90
        0
176
     1
 62
   257
176
     1
 40
1.0
176
     1
 90
        1
176
     1
 90
        6
176
     1
 90
        2
176
     1
 62
     7
176
     1
 90
        5
176
     1
 90
        0
176
     1
 90
        0
176
     1
290
     0
176
     1
 90
        1
176
     1
 40
0.0
176
     1
 90
        0
176
     1
290
     1
176
     1
290
     1
176
     1
290
     0
176
     1
290
     0
176
     1
290
     0
176
     1
290
     0
176
     1
290
     0
176
     1
290
     0
176
     1
290
     0
176
     1
 90
       50
176
     1
 40
0.0
176
     1
 40
1.0
176
     1
 90
        0
176
     1
 62
    18
420
        0
176
     1
 90
       50
176
     1
 90
        3
176
     1
 62
     5
420
      255
176
     1
290
     0
176
     1
 90
       50
176
     1
 90
       50
176
     1
 90
       50
176
     1
290
     0
176
     1
 90
       50
176
     1
 62
   256
176
     0
 40
1.0
176
     0
 90
        2
176
     1
  1
strokes_ogs.tif
176
     1
290
     0
176
     1
 40
1.0
176
     1
 40
1.0
176
     1
  0
VISUALSTYLE
  5
32
102
{ACAD_REACTORS
330
2A
102
}
330
2A
100
AcDbVisualStyle
  2
Basic
 70
     7
177
     3
291
     1
 70
    58
 90
        1
176
     1
 90
        0
176
     1
 90
        1
176
     1
 90
        0
176
     1
 40
0.6
176
     1
 40
30.0
176
     1
 62
     7
420
 16777215
176
     1
 90
        0
176
     1
 90
        4
176
     1
 62
     7
176
     1
 62
   257
176
     1
 90
        1
176
     1
 90
        1
176
     1
 40
1.0
176
     1
 90
        8
176
     1
 62
     7
176
     1
 40
1.0
176
     1
 90
        1
176
     1
 90
        6
176
     1
 90
        2
176
     1
 62
     7
176
     1
 90
        5
176
     1
 90
        0
176
     1
 90
        0
176
     1
290
     0
176
     1
 90
        1
176
     1
 40
0.0
176
     1
 90
        0
176
     1
290
     0
176
     1
290
     1
176
     1
290
     1
176
     1
290
     0
176
     1
290
     0
176
     1
290
     0
176
     1
290
     0
176
     1
290
     0
176
     1
290
     0
176
     1
 90
       50
176
     1
 40
0.0
176
     1
 40
1.0
176
     1
 90
        0
176
     1
 62
    18
420
        0
176
     1
 90
       50
176
     1
 90
        3
176
     1
 62
     5
420
      255
176
     1
290
     0
176
     1
 90
       50
176
     1
 90
       50
176
     1
 90
       50
176
     1
290
     0
176
     1
 90
       50
176
     1
 62
   256
176
     0
 40
1.0
176
     0
 90
        2
176
     1
  1
strokes_ogs.tif
176
     1
290
     0
176
     1
 40
1.0
176
     1
 40
1.0
176
     1
  0
VISUALSTYLE
  5
36
102
{ACAD_REACTORS
330
2A
102
}
330
2A
100
AcDbVisualStyle
  2
Brighten
 70
    12
177
     3
291
     1
 70
    58
 90
        2
176
     1
 90
        2
176
     1
 90
        0
176
     1
 90
        0
176
     1
 40
0.6
176
     1
 40
30.0
176
     1
 62
     7
420
 16777215
176
     1
 90
        1
176
     1
 90
        4
176
     1
 62
     7
176
     1
 62
   257
176
     1
 90
        1
176
     1
 90
        1
176
     1
 40
1.0
176
     1
 90
        8
176
     1
 62
     7
176
     1
 40
1.0
176
     1
 90
        1
176
     1
 90
        6
176
     1
 90
        2
176
     1
 62
     7
176
     1
 90
        5
176
     1
 90
        0
176
     1
 90
        0
176
     1
290
     0
176
     1
 90
        1
176
     1
 40
50.0
176
     1
 90
        0
176
     1
290
     0
176
     1
290
     1
176
     1
290
     1
176
     1
290
     0
176
     1
290
     0
176
     1
290
     0
176
     1
290
     0
176
     1
290
     0
176
     1
290
     0
176
     1
 90
       50
176
     1
 40
0.0
176
     1
 40
1.0
176
     1
 90
        0
176
     1
 62
    18
420
        0
176
     1
 90
       50
176
     1
 90
        3
176
     1
 62
     5
420
      255
176
     1
290
     0
176
     1
 90
       50
176
     1
 90
       50
176
     1
 90
       50
176
     1
290
     0
176
     1
 90
       50
176
     1
 62
   256
176
     0
 40
1.0
176
     0
 90
        2
176
     1
  1
strokes_ogs.tif
176
     1
290
     0
176
     1
 40
1.0
176
     1
 40
1.0
176
     1
  0
VISUALSTYLE
  5
3A
102
{ACAD_REACTORS
330
2A
102
}
330
2A
100
AcDbVisualStyle
  2
ColorChange
 70
    16
177
     3
291
     1
 70
    58
 90
        2
176
     1
 90
        2
176
     1
 90
        3
176
     1
 90
        0
176
     1
 40
0.6
176
     1
 40
30.0
176
     1
 62
     8
420
  8421504
176
     1
 90
        1
176
     1
 90
        4
176
     1
 62
     7
176
     1
 62
   257
176
     1
 90
        1
176
     1
 90
        1
176
     1
 40
1.0
176
     1
 90
        8
176
     1
 62
     8
420
  8421504
176
     1
 40
1.0
176
     1
 90
        1
176
     1
 90
        6
176
     1
 90
        2
176
     1
 62
     7
176
     1
 90
        5
176
     1
 90
        0
176
     1
 90
        0
176
     1
290
     0
176
     1
 90
        1
176
     1
 40
0.0
176
     1
 90
        0
176
     1
290
     0
176
     1
290
     1
176
     1
290
     1
176
     1
290
     0
176
     1
290
     0
176
     1
290
     0
176
     1
290
     0
176
     1
290
     0
176
     1
290
     0
176
     1
 90
       50
176
     1
 40
0.0
176
     1
 40
1.0
176
     1
 90
        0
176
     1
 62
    18
420
        0
176
     1
 90
       50
176
     1
 90
        3
176
     1
 62
     5
420
      255
176
     1
290
     0
176
     1
 90
       50
176
     1
 90
       50
176
     1
 90
       50
176
     1
290
     0
176
     1
 90
       50
176
     1
 62
   256
176
     0
 40
1.0
176
     0
 90
        2
176
     1
  1
strokes_ogs.tif
176
     1
290
     0
176
     1
 40
1.0
176
     1
 40
1.0
176
     1
  0
VISUALSTYLE
  5
34
102
{ACAD_REACTORS
330
2A
102
}
330
2A
100
AcDbVisualStyle
  2
Conceptual
 70
     9
177
     3
291
     0
 70
    58
 90
        3
176
     1
 90
        2
176
     1
 90
        0
176
     1
 90
        0
176
     1
 40
0.6
176
     1
 40
30.0
176
     1
 62
     7
420
 16777215
176
     1
 90
        2
176
     1
 90
        2
176
     1
 62
     7
176
     1
 62
   257
176
     1
 90
        1
176
     1
 90
        1
176
     1
 40
179.0
176
     1
 90
        8
176
     1
 62
     7
176
     1
 40
1.0
176
     1
 90
        1
176
     1
 90
        6
176
     1
 90
        2
176
     1
 62
     7
176
     1
 90
        3
176
     1
 90
        0
176
     1
 90
        0
176
     1
290
     0
176
     1
 90
        1
176
     1
 40
0.0
176
     1
 90
        0
176
     1
290
     0
176
     1
290
     1
176
     1
290
     1
176
     1
290
     0
176
     1
290
     0
176
     1
290
     0
176
     1
290
     0
176
     1
290
     0
176
     1
290
     0
176
     1
 90
       50
176
     1
 40
0.0
176
     1
 40
1.0
176
     1
 90
        0
176
     1
 62
    18
420
        0
176
     1
 90
       50
176
     1
 90
        3
176
     1
 62
     5
420
      255
176
     1
290
     0
176
     1
 90
       50
176
     1
 90
       50
176
     1
 90
       50
176
     1
290
     0
176
     1
 90
       50
176
     1
 62
   256
176
     0
 40
1.0
176
     0
 90
        2
176
     1
  1
strokes_ogs.tif
176
     1
290
     0
176
     1
 40
1.0
176
     1
 40
1.0
176
     1
  0
VISUALSTYLE
  5
35
102
{ACAD_REACTORS
330
2A
102
}
330
2A
100
AcDbVisualStyle
  2
Dim
 70
    11
177
     3
291
     1
 70
    58
 90
        2
176
     1
 90
        2
176
     1
 90
        0
176
     1
 90
        0
176
     1
 40
0.6
176
     1
 40
30.0
176
     1
 62
     7
420
 16777215
176
     1
 90
        1
176
     1
 90
        4
176
     1
 62
     7
176
     1
 62
   257
176
     1
 90
        1
176
     1
 90
        1
176
     1
 40
1.0
176
     1
 90
        8
176
     1
 62
     7
176
     1
 40
1.0
176
     1
 90
        1
176
     1
 90
        6
176
     1
 90
        2
176
     1
 62
     7
176
     1
 90
        5
176
     1
 90
        0
176
     1
 90
        0
176
     1
290
     0
176
     1
 90
        1
176
     1
 40
-50.0
176
     1
 90
        0
176
     1
290
     0
176
     1
290
     1
176
     1
290
     1
176
     1
290
     0
176
     1
290
     0
176
     1
290
     0
176
     1
290
     0
176
     1
290
     0
176
     1
290
     0
176
     1
 90
       50
176
     1
 40
0.0
176
     1
 40
1.0
176
     1
 90
        0
176
     1
 62
    18
420
        0
176
     1
 90
       50
176
     1
 90
        3
176
     1
 62
     5
420
      255
176
     1
290
     0
176
     1
 90
       50
176
     1
 90
       50
176
     1
 90
       50
176
     1
290
     0
176
     1
 90
       50
176
     1
 62
   256
176
     0
 40
1.0
176
     0
 90
        2
176
     1
  1
strokes_ogs.tif
176
     1
290
     0
176
     1
 40
1.0
176
     1
 40
1.0
176
     1
  0
VISUALSTYLE
  5
3D
102
{ACAD_REACTORS
330
2A
102
}
330
2A
100
AcDbVisualStyle
  2
EdgeColorOff
 70
    22
177
     3
291
     1
 70
    58
 90
        2
176
     0
 90
        2
176
     0
 90
        0
176
     0
 90
        0
176
     0
 40
0.6
176
     0
 40
30.0
176
     0
 62
     7
420
 16777215
176
     0
 90
        1
176
     0
 90
        4
176
     0
 62
     7
176
     0
 62
   257
176
     0
 90
        1
176
     0
 90
        1
176
     0
 40
1.0
176
     0
 90
        8
176
     2
 62
     7
176
     0
 40
1.0
176
     0
 90
        1
176
     0
 90
        6
176
     0
 90
        2
176
     0
 62
     7
176
     0
 90
        5
176
     0
 90
        0
176
     0
 90
        0
176
     0
290
     0
176
     0
 90
        1
176
     0
 40
0.0
176
     0
 90
        0
176
     0
290
     0
176
     0
290
     1
176
     0
290
     1
176
     0
290
     0
176
     0
290
     0
176
     0
290
     0
176
     0
290
     0
176
     0
290
     0
176
     0
290
     0
176
     0
 90
       50
176
     0
 40
0.0
176
     0
 40
1.0
176
     0
 90
        0
176
     0
 62
    18
420
        0
176
     0
 90
       50
176
     0
 90
        3
176
     0
 62
     5
420
      255
176
     0
290
     0
176
     0
 90
       50
176
     0
 90
       50
176
     0
 90
       50
176
     0
290
     0
176
     0
 90
       50
176
     0
 62
   256
176
     0
 40
1.0
176
     0
 90
        2
176
     0
  1
strokes_ogs.tif
176
     0
290
     0
176
     0
 40
1.0
176
     0
 40
1.0
176
     0
  0
VISUALSTYLE
  5
39
102
{ACAD_REACTORS
330
2A
102
}
330
2A
100
AcDbVisualStyle
  2
Facepattern
 70
    15
177
     3
291
     1
 70
    58
 90
        2
176
     1
 90
        2
176
     1
 90
        0
176
     1
 90
        0
176
     1
 40
0.6
176
     1
 40
30.0
176
     1
 62
     7
420
 16777215
176
     1
 90
        1
176
     1
 90
        4
176
     1
 62
     7
176
     1
 62
   257
176
     1
 90
        1
176
     1
 90
        1
176
     1
 40
1.0
176
     1
 90
        8
176
     1
 62
     7
176
     1
 40
1.0
176
     1
 90
        1
176
     1
 90
        6
176
     1
 90
        2
176
     1
 62
     7
176
     1
 90
        5
176
     1
 90
        0
176
     1
 90
        0
176
     1
290
     0
176
     1
 90
        1
176
     1
 40
0.0
176
     1
 90
        0
176
     1
290
     0
176
     1
290
     1
176
     1
290
     1
176
     1
290
     0
176
     1
290
     0
176
     1
290
     0
176
     1
290
     0
176
     1
290
     0
176
     1
290
     0
176
     1
 90
       50
176
     1
 40
0.0
176
     1
 40
1.0
176
     1
 90
        0
176
     1
 62
    18
420
        0
176
     1
 90
       50
176
     1
 90
        3
176
     1
 62
     5
420
      255
176
     1
290
     0
176
     1
 90
       50
176
     1
 90
       50
176
     1
 90
       50
176
     1
290
     0
176
     1
 90
       50
176
     1
 62
   256
176
     0
 40
1.0
176
     0
 90
        2
176
     1
  1
strokes_ogs.tif
176
     1
290
     0
176
     1
 40
1.0
176
     1
 40
1.0
176
     1
  0
VISUALSTYLE
  5
2B
102
{ACAD_REACTORS
330
2A
102
}
330
2A
100
AcDbVisualStyle
  2
Flat
 70
     0
177
     3
291
     1
 70
    58
 90
        2
176
     1
 90
        1
176
     1
 90
        1
176
     1
 90
        2
176
     1
 40
0.6
176
     1
 40
30.0
176
     1
 62
     7
420
 16777215
176
     1
 90
        0
176
     1
 90
        0
176
     1
 62
     7
176
     1
 62
   257
176
     1
 90
        1
176
     1
 90
        1
176
     1
 40
1.0
176
     1
 90
        8
176
     1
 62
     7
176
     1
 40
1.0
176
     1
 90
        1
176
     1
 90
        6
176
     1
 90
        2
176
     1
 62
     7
176
     1
 90
        5
176
     1
 90
        0
176
     1
 90
        0
176
     1
290
     0
176
     1
 90
       13
176
     1
 40
0.0
176
     1
 90
        0
176
     1
290
     0
176
     1
290
     1
176
     1
290
     1
176
     1
290
     0
176
     1
290
     0
176
     1
290
     0
176
     1
290
     0
176
     1
290
     0
176
     1
290
     0
176
     1
 90
       50
176
     1
 40
0.0
176
     1
 40
1.0
176
     1
 90
        0
176
     1
 62
    18
420
        0
176
     1
 90
       50
176
     1
 90
        3
176
     1
 62
     5
420
      255
176
     1
290
     0
176
     1
 90
       50
176
     1
 90
       50
176
     1
 90
       50
176
     1
290
     0
176
     1
 90
       50
176
     1
 62
   256
176
     0
 40
1.0
176
     0
 90
        2
176
     1
  1
strokes_ogs.tif
176
     1
290
     0
176
     1
 40
1.0
176
     1
 40
1.0
176
     1
  0
VISUALSTYLE
  5
2C
102
{ACAD_REACTORS
330
2A
102
}
330
2A
100
AcDbVisualStyle
  2
FlatWithEdges
 70
     1
177
     3
291
     1
 70
    58
 90
        2
176
     1
 90
        1
176
     1
 90
        1
176
     1
 90
        2
176
     1
 40
0.6
176
     1
 40
30.0
176
     1
 62
     7
420
 16777215
176
     1
 90
        1
176
     1
 90
        0
176
     1
 62
     7
176
     1
 62
   257
176
     1
 90
        1
176
     1
 90
        1
176
     1
 40
1.0
176
     1
 90
        0
176
     1
 62
   257
176
     1
 40
1.0
176
     1
 90
        1
176
     1
 90
        6
176
     1
 90
        2
176
     1
 62
     7
176
     1
 90
        5
176
     1
 90
        0
176
     1
 90
        0
176
     1
290
     0
176
     1
 90
       13
176
     1
 40
0.0
176
     1
 90
        0
176
     1
290
     0
176
     1
290
     1
176
     1
290
     1
176
     1
290
     0
176
     1
290
     0
176
     1
290
     0
176
     1
290
     0
176
     1
290
     0
176
     1
290
     0
176
     1
 90
       50
176
     1
 40
0.0
176
     1
 40
1.0
176
     1
 90
        0
176
     1
 62
    18
420
        0
176
     1
 90
       50
176
     1
 90
        3
176
     1
 62
     5
420
      255
176
     1
290
     0
176
     1
 90
       50
176
     1
 90
       50
176
     1
 90
       50
176
     1
290
     0
176
     1
 90
       50
176
     1
 62
   256
176
     0
 40
1.0
176
     0
 90
        2
176
     1
  1
strokes_ogs.tif
176
     1
290
     0
176
     1
 40
1.0
176
     1
 40
1.0
176
     1
  0
VISUALSTYLE
  5
2D
102
{ACAD_REACTORS
330
2A
102
}
330
2A
100
AcDbVisualStyle
  2
Gouraud
 70
     2
177
     3
291
     1
 70
    58
 90
        2
176
     1
 90
        2
176
     1
 90
        1
176
     1
 90
        2
176
     1
 40
0.6
176
     1
 40
30.0
176
     1
 62
     7
420
 16777215
176
     1
 90
        0
176
     1
 90
        0
176
     1
 62
     7
176
     1
 62
   257
176
     1
 90
        1
176
     1
 90
        1
176
     1
 40
1.0
176
     1
 90
        0
176
     1
 62
     7
176
     1
 40
1.0
176
     1
 90
        1
176
     1
 90
        6
176
     1
 90
        2
176
     1
 62
     7
176
     1
 90
        5
176
     1
 90
        0
176
     1
 90
        0
176
     1
290
     0
176
     1
 90
       13
176
     1
 40
0.0
176
     1
 90
        0
176
     1
290
     0
176
     1
290
     1
176
     1
290
     1
176
     1
290
     0
176
     1
290
     0
176
     1
290
     0
176
     1
290
     0
176
     1
290
     0
176
     1
290
     0
176
     1
 90
       50
176
     1
 40
0.0
176
     1
 40
1.0
176
     1
 90
        0
176
     1
 62
    18
420
        0
176
     1
 90
       50
176
     1
 90
        3
176
     1
 62
     5
420
      255
176
     1
290
     0
176
     1
 90
       50
176
     1
 90
       50
176
     1
 90
       50
176
     1
290
     0
176
     1
 90
       50
176
     1
 62
   256
176
     0
 40
1.0
176
     0
 90
        2
176
     1
  1
strokes_ogs.tif
176
     1
290
     0
176
     1
 40
1.0
176
     1
 40
1.0
176
     1
  0
VISUALSTYLE
  5
2E
102
{ACAD_REACTORS
330
2A
102
}
330
2A
100
AcDbVisualStyle
  2
GouraudWithEdges
 70
     3
177
     3
291
     1
 70
    58
 90
        2
176
     1
 90
        2
176
     1
 90
        1
176
     1
 90
        2
176
     1
 40
0.6
176
     1
 40
30.0
176
     1
 62
     7
420
 16777215
176
     1
 90
        1
176
     1
 90
        0
176
     1
 62
     7
176
     1
 62
   257
176
     1
 90
        1
176
     1
 90
        1
176
     1
 40
1.0
176
     1
 90
        0
176
     1
 62
   257
176
     1
 40
1.0
176
     1
 90
        1
176
     1
 90
        6
176
     1
 90
        2
176
     1
 62
     7
176
     1
 90
        5
176
     1
 90
        0
176
     1
 90
        0
176
     1
290
     0
176
     1
 90
       13
176
     1
 40
0.0
176
     1
 90
        0
176
     1
290
     0
176
     1
290
     1
176
     1
290
     1
176
     1
290
     0
176
     1
290
     0
176
     1
290
     0
176
     1
290
     0
176
     1
290
     0
176
     1
290
     0
176
     1
 90
       50
176
     1
 40
0.0
176
     1
 40
1.0
176
     1
 90
        0
176
     1
 62
    18
420
        0
176
     1
 90
       50
176
     1
 90
        3
176
     1
 62
     5
420
      255
176
     1
290
     0
176
     1
 90
       50
176
     1
 90
       50
176
     1
 90
       50
176
     1
290
     0
176
     1
 90
       50
176
     1
 62
   256
176
     0
 40
1.0
176
     0
 90
        2
176
     1
  1
strokes_ogs.tif
176
     1
290
     0
176
     1
 40
1.0
176
     1
 40
1.0
176
     1
  0
VISUALSTYLE
  5
31
102
{ACAD_REACTORS
330
2A
102
}
330
2A
100
AcDbVisualStyle
  2
Hidden
 70
     6
177
     3
291
     0
 70
    58
 90
        1
176
     1
 90
        2
176
     1
 90
        2
176
     1
 90
        0
176
     1
 40
0.6
176
     1
 40
30.0
176
     1
 62
     7
420
 16777215
176
     1
 90
        2
176
     1
 90
        2
176
     1
 62
     7
176
     1
 62
   257
176
     1
 90
        2
176
     1
 90
        1
176
     1
 40
40.0
176
     1
 90
        0
176
     1
 62
   257
176
     1
 40
1.0
176
     1
 90
        1
176
     1
 90
        6
176
     1
 90
        2
176
     1
 62
     7
176
     1
 90
        3
176
     1
 90
        0
176
     1
 90
        0
176
     1
290
     0
176
     1
 90
        1
176
     1
 40
0.0
176
     1
 90
        0
176
     1
290
     0
176
     1
290
     1
176
     1
290
     1
176
     1
290
     0
176
     1
290
     0
176
     1
290
     0
176
     1
290
     0
176
     1
290
     0
176
     1
290
     0
176
     1
 90
       50
176
     1
 40
0.0
176
     1
 40
1.0
176
     1
 90
        0
176
     1
 62
    18
420
        0
176
     1
 90
       50
176
     1
 90
        3
176
     1
 62
     5
420
      255
176
     1
290
     0
176
     1
 90
       50
176
     1
 90
       50
176
     1
 90
       50
176
     1
290
     0
176
     1
 90
       50
176
     1
 62
   256
176
     0
 40
1.0
176
     0
 90
        2
176
     1
  1
strokes_ogs.tif
176
     1
290
     0
176
     1
 40
1.0
176
     1
 40
1.0
176
     1
  0
VISUALSTYLE
  5
3B
102
{ACAD_REACTORS
330
2A
102
}
330
2A
100
AcDbVisualStyle
  2
JitterOff
 70
    20
177
     3
291
     1
 70
    58
 90
        2
176
     0
 90
        2
176
     0
 90
        0
176
     0
 90
        0
176
     0
 40
0.6
176
     0
 40
30.0
176
     0
 62
     7
420
 16777215
176
     0
 90
        1
176
     0
 90
        4
176
     0
 62
     7
176
     0
 62
   257
176
     0
 90
        1
176
     0
 90
        1
176
     0
 40
1.0
176
     0
 90
       10
176
     2
 62
     7
176
     0
 40
1.0
176
     0
 90
        1
176
     0
 90
        6
176
     0
 90
        2
176
     0
 62
     7
176
     0
 90
        5
176
     0
 90
        0
176
     0
 90
        0
176
     0
290
     0
176
     0
 90
        1
176
     0
 40
0.0
176
     0
 90
        0
176
     0
290
     0
176
     0
290
     1
176
     0
290
     1
176
     0
290
     0
176
     0
290
     0
176
     0
290
     0
176
     0
290
     0
176
     0
290
     0
176
     0
290
     0
176
     0
 90
       50
176
     0
 40
0.0
176
     0
 40
1.0
176
     0
 90
        0
176
     0
 62
    18
420
        0
176
     0
 90
       50
176
     0
 90
        3
176
     0
 62
     5
420
      255
176
     0
290
     0
176
     0
 90
       50
176
     0
 90
       50
176
     0
 90
       50
176
     0
290
     0
176
     0
 90
       50
176
     0
 62
   256
176
     0
 40
1.0
176
     0
 90
        2
176
     0
  1
strokes_ogs.tif
176
     0
290
     0
176
     0
 40
1.0
176
     0
 40
1.0
176
     0
  0
VISUALSTYLE
  5
38
102
{ACAD_REACTORS
330
2A
102
}
330
2A
100
AcDbVisualStyle
  2
Linepattern
 70
    14
177
     3
291
     1
 70
    58
 90
        2
176
     1
 90
        2
176
     1
 90
        0
176
     1
 90
        0
176
     1
 40
0.6
176
     1
 40
30.0
176
     1
 62
     7
420
 16777215
176
     1
 90
        1
176
     1
 90
        4
176
     1
 62
     7
176
     1
 62
   257
176
     1
 90
        7
176
     1
 90
        7
176
     1
 40
1.0
176
     1
 90
        8
176
     1
 62
     7
176
     1
 40
1.0
176
     1
 90
        1
176
     1
 90
        6
176
     1
 90
        2
176
     1
 62
     7
176
     1
 90
        5
176
     1
 90
        0
176
     1
 90
        0
176
     1
290
     0
176
     1
 90
        1
176
     1
 40
0.0
176
     1
 90
        0
176
     1
290
     0
176
     1
290
     1
176
     1
290
     1
176
     1
290
     0
176
     1
290
     0
176
     1
290
     0
176
     1
290
     0
176
     1
290
     0
176
     1
290
     0
176
     1
 90
       50
176
     1
 40
0.0
176
     1
 40
1.0
176
     1
 90
        0
176
     1
 62
    18
420
        0
176
     1
 90
       50
176
     1
 90
        3
176
     1
 62
     5
420
      255
176
     1
290
     0
176
     1
 90
       50
176
     1
 90
       50
176
     1
 90
       50
176
     1
290
     0
176
     1
 90
       50
176
     1
 62
   256
176
     0
 40
1.0
176
     0
 90
        2
176
     1
  1
strokes_ogs.tif
176
     1
290
     0
176
     1
 40
1.0
176
     1
 40
1.0
176
     1
  0
VISUALSTYLE
  5
3C
102
{ACAD_REACTORS
330
2A
102
}
330
2A
100
AcDbVisualStyle
  2
OverhangOff
 70
    21
177
     3
291
     1
 70
    58
 90
        2
176
     0
 90
        2
176
     0
 90
        0
176
     0
 90
        0
176
     0
 40
0.6
176
     0
 40
30.0
176
     0
 62
     7
420
 16777215
176
     0
 90
        1
176
     0
 90
        4
176
     0
 62
     7
176
     0
 62
   257
176
     0
 90
        1
176
     0
 90
        1
176
     0
 40
1.0
176
     0
 90
        9
176
     2
 62
     7
176
     0
 40
1.0
176
     0
 90
        1
176
     0
 90
        6
176
     0
 90
        2
176
     0
 62
     7
176
     0
 90
        5
176
     0
 90
        0
176
     0
 90
        0
176
     0
290
     0
176
     0
 90
        1
176
     0
 40
0.0
176
     0
 90
        0
176
     0
290
     0
176
     0
290
     1
176
     0
290
     1
176
     0
290
     0
176
     0
290
     0
176
     0
290
     0
176
     0
290
     0
176
     0
290
     0
176
     0
290
     0
176
     0
 90
       50
176
     0
 40
0.0
176
     0
 40
1.0
176
     0
 90
        0
176
     0
 62
    18
420
        0
176
     0
 90
       50
176
     0
 90
        3
176
     0
 62
     5
420
      255
176
     0
290
     0
176
     0
 90
       50
176
     0
 90
       50
176
     0
 90
       50
176
     0
290
     0
176
     0
 90
       50
176
     0
 62
   256
176
     0
 40
1.0
176
     0
 90
        2
176
     0
  1
strokes_ogs.tif
176
     0
290
     0
176
     0
 40
1.0
176
     0
 40
1.0
176
     0
  0
VISUALSTYLE
  5
33
102
{ACAD_REACTORS
330
2A
102
}
330
2A
100
AcDbVisualStyle
  2
Realistic
 70
     8
177
     3
291
     0
 70
    58
 90
        2
176
     1
 90
        3
176
     1
 90
        0
176
     1
 90
        2
176
     1
 40
0.6
176
     1
 40
30.0
176
     1
 62
     7
420
 16777215
176
     1
 90
        0
176
     1
 90
        0
176
     1
 62
     7
176
     1
 62
   257
176
     1
 90
        1
176
     1
 90
        1
176
     1
 40
1.0
176
     1
 90
        8
176
     1
 62
   257
176
     1
 40
1.0
176
     1
 90
        1
176
     1
 90
        6
176
     1
 90
        2
176
     1
 62
     7
176
     1
 90
        3
176
     1
 90
        0
176
     1
 90
        0
176
     1
290
     0
176
     1
 90
       13
176
     1
 40
0.0
176
     1
 90
        0
176
     1
290
     0
176
     1
290
     1
176
     1
290
     1
176
     1
290
     0
176
     1
290
     0
176
     1
290
     0
176
     1
290
     0
176
     1
290
     0
176
     1
290
     0
176
     1
 90
       50
176
     1
 40
0.0
176
     1
 40
1.0
176
     1
 90
        0
176
     1
 62
    18
420
        0
176
     1
 90
       50
176
     1
 90
        3
176
     1
 62
     5
420
      255
176
     1
290
     0
176
     1
 90
       50
176
     1
 90
       50
176
     1
 90
       50
176
     1
290
     0
176
     1
 90
       50
176
     1
 62
   256
176
     0
 40
1.0
176
     0
 90
        2
176
     1
  1
strokes_ogs.tif
176
     1
290
     0
176
     1
 40
1.0
176
     1
 40
1.0
176
     1
  0
VISUALSTYLE
  5
42
102
{ACAD_REACTORS
330
2A
102
}
330
2A
100
AcDbVisualStyle
  2
Shaded
 70
    27
177
     3
291
     0
 70
    58
 90
        2
176
     1
 90
        2
176
     1
 90
        1
176
     1
 90
        2
176
     1
 40
0.6
176
     1
 40
30.0
176
     1
 62
     7
420
 16777215
176
     1
 90
        0
176
     1
 90
        4
176
     1
 62
     7
176
     1
 62
   257
176
     1
 90
        1
176
     1
 90
        1
176
     1
 40
1.0
176
     1
 90
        8
176
     1
 62
   257
176
     1
 40
1.0
176
     1
 90
        1
176
     1
 90
        6
176
     1
 90
        2
176
     1
 62
     8
420
  7895160
176
     1
 90
        3
176
     1
 90
        0
176
     1
 90
        0
176
     1
290
     0
176
     1
 90
        5
176
     1
 40
0.0
176
     1
 90
        0
176
     1
290
     0
176
     1
290
     1
176
     1
290
     1
176
     1
290
     0
176
     1
290
     0
176
     1
290
     0
176
     1
290
     0
176
     1
290
     0
176
     1
290
     0
176
     1
 90
       50
176
     1
 40
0.0
176
     1
 40
1.0
176
     1
 90
        0
176
     1
 62
    18
420
        0
176
     1
 90
       50
176
     1
 90
        3
176
     1
 62
     5
420
      255
176
     1
290
     0
176
     1
 90
       50
176
     1
 90
       50
176
     1
 90
       50
176
     1
290
     0
176
     1
 90
       50
176
     1
 62
   256
176
     0
 40
1.0
176
     0
 90
        2
176
     1
  1
strokes_ogs.tif
176
     1
290
     0
176
     1
 40
1.0
176
     1
 40
1.0
176
     1
  0
VISUALSTYLE
  5
41
102
{ACAD_REACTORS
330
2A
102
}
330
2A
100
AcDbVisualStyle
  2
Shaded with edges
 70
    26
177
     3
291
     0
 70
    58
 90
        2
176
     1
 90
        2
176
     1
 90
        1
176
     1
 90
        2
176
     1
 40
0.6
176
     1
 40
30.0
176
     1
 62
     7
420
 16777215
176
     1
 90
        1
176
     1
 90
       10
176
     1
 62
     7
176
     1
 62
   257
176
     1
 90
        2
176
     1
 90
        1
176
     1
 40
1.0
176
     1
 90
        8
176
     1
 62
   257
176
     1
 40
1.0
176
     1
 90
        1
176
     1
 90
        6
176
     1
 90
        2
176
     1
 62
     7
176
     1
 90
        3
176
     1
 90
        0
176
     1
 90
        0
176
     1
290
     0
176
     1
 90
        5
176
     1
 40
0.0
176
     1
 90
        0
176
     1
290
     0
176
     1
290
     1
176
     1
290
     1
176
     1
290
     0
176
     1
290
     0
176
     1
290
     0
176
     1
290
     0
176
     1
290
     0
176
     1
290
     0
176
     1
 90
       50
176
     1
 40
0.0
176
     1
 40
1.0
176
     1
 90
        0
176
     1
 62
    18
420
        0
176
     1
 90
       50
176
     1
 90
        3
176
     1
 62
     5
420
      255
176
     1
290
     0
176
     1
 90
       50
176
     1
 90
       50
176
     1
 90
       50
176
     1
290
     0
176
     1
 90
       50
176
     1
 62
   256
176
     0
 40
1.0
176
     0
 90
        2
176
     1
  1
strokes_ogs.tif
176
     1
290
     0
176
     1
 40
1.0
176
     1
 40
1.0
176
     1
  0
VISUALSTYLE
  5
3E
102
{ACAD_REACTORS
330
2A
102
}
330
2A
100
AcDbVisualStyle
  2
Shades of Gray
 70
    23
177
     3
291
     0
 70
    58
 90
        2
176
     1
 90
        2
176
     1
 90
        3
176
     1
 90
        0
176
     1
 40
0.6
176
     1
 40
30.0
176
     1
 62
     7
420
 16777215
176
     1
 90
        2
176
     1
 90
        2
176
     1
 62
     7
176
     1
 62
     7
176
     1
 90
        1
176
     1
 90
        1
176
     1
 40
40.0
176
     1
 90
        8
176
     1
 62
     7
176
     1
 40
1.0
176
     1
 90
        1
176
     1
 90
        6
176
     1
 90
        2
176
     1
 62
     7
176
     1
 90
        3
176
     1
 90
        0
176
     1
 90
        0
176
     1
290
     0
176
     1
 90
        1
176
     1
 40
0.0
176
     1
 90
        0
176
     1
290
     0
176
     1
290
     1
176
     1
290
     1
176
     1
290
     0
176
     1
290
     0
176
     1
290
     0
176
     1
290
     0
176
     1
290
     0
176
     1
290
     0
176
     1
 90
       50
176
     1
 40
0.0
176
     1
 40
1.0
176
     1
 90
        0
176
     1
 62
    18
420
        0
176
     1
 90
       50
176
     1
 90
        3
176
     1
 62
     5
420
      255
176
     1
290
     0
176
     1
 90
       50
176
     1
 90
       50
176
     1
 90
       50
176
     1
290
     0
176
     1
 90
       50
176
     1
 62
   256
176
     0
 40
1.0
176
     0
 90
        2
176
     1
  1
strokes_ogs.tif
176
     1
290
     0
176
     1
 40
1.0
176
     1
 40
1.0
176
     1
  0
VISUALSTYLE
  5
3F
102
{ACAD_REACTORS
330
2A
102
}
330
2A
100
AcDbVisualStyle
  2
Sketchy
 70
    24
177
     3
291
     0
 70
    58
 90
        1
176
     1
 90
        2
176
     1
 90
        2
176
     1
 90
        0
176
     1
 40
0.6
176
     1
 40
30.0
176
     1
 62
     7
420
 16777215
176
     1
 90
        2
176
     1
 90
        2
176
     1
 62
     7
176
     1
 62
     7
176
     1
 90
        1
176
     1
 90
        1
176
     1
 40
40.0
176
     1
 90
       11
176
     1
 62
     7
176
     1
 40
1.0
176
     1
 90
        1
176
     1
 90
        6
176
     1
 90
        2
176
     1
 62
     7
176
     1
 90
        6
176
     1
 90
        0
176
     1
 90
        0
176
     1
290
     0
176
     1
 90
        1
176
     1
 40
0.0
176
     1
 90
        0
176
     1
290
     0
176
     1
290
     1
176
     1
290
     1
176
     1
290
     0
176
     1
290
     0
176
     1
290
     0
176
     1
290
     0
176
     1
290
     0
176
     1
290
     0
176
     1
 90
       50
176
     1
 40
0.0
176
     1
 40
1.0
176
     1
 90
        0
176
     1
 62
    18
420
        0
176
     1
 90
       50
176
     1
 90
        3
176
     1
 62
     5
420
      255
176
     1
290
     0
176
     1
 90
       50
176
     1
 90
       50
176
     1
 90
       50
176
     1
290
     0
176
     1
 90
       50
176
     1
 62
   256
176
     0
 40
1.0
176
     0
 90
        2
176
     1
  1
strokes_ogs.tif
176
     1
290
     0
176
     1
 40
1.0
176
     1
 40
1.0
176
     1
  0
VISUALSTYLE
  5
37
102
{ACAD_REACTORS
330
2A
102
}
330
2A
100
AcDbVisualStyle
  2
Thicken
 70
    13
177
     3
291
     1
 70
    58
 90
        2
176
     1
 90
        2
176
     1
 90
        0
176
     1
 90
        0
176
     1
 40
0.6
176
     1
 40
30.0
176
     1
 62
     7
420
 16777215
176
     1
 90
        1
176
     1
 90
        4
176
     1
 62
     7
176
     1
 62
   257
176
     1
 90
        1
176
     1
 90
        1
176
     1
 40
1.0
176
     1
 90
       12
176
     1
 62
     7
176
     1
 40
1.0
176
     1
 90
        1
176
     1
 90
        6
176
     1
 90
        2
176
     1
 62
     7
176
     1
 90
        5
176
     1
 90
        0
176
     1
 90
        0
176
     1
290
     0
176
     1
 90
        1
176
     1
 40
0.0
176
     1
 90
        0
176
     1
290
     0
176
     1
290
     1
176
     1
290
     1
176
     1
290
     0
176
     1
290
     0
176
     1
290
     0
176
     1
290
     0
176
     1
290
     0
176
     1
290
     0
176
     1
 90
       50
176
     1
 40
0.0
176
     1
 40
1.0
176
     1
 90
        0
176
     1
 62
    18
420
        0
176
     1
 90
       50
176
     1
 90
        3
176
     1
 62
     5
420
      255
176
     1
290
     0
176
     1
 90
       50
176
     1
 90
       50
176
     1
 90
       50
176
     1
290
     0
176
     1
 90
       50
176
     1
 62
   256
176
     0
 40
1.0
176
     0
 90
        2
176
     1
  1
strokes_ogs.tif
176
     1
290
     0
176
     1
 40
1.0
176
     1
 40
1.0
176
     1
  0
VISUALSTYLE
  5
30
102
{ACAD_REACTORS
330
2A
102
}
330
2A
100
AcDbVisualStyle
  2
Wireframe
 70
     5
177
     3
291
     0
 70
    58
 90
        0
176
     1
 90
        2
176
     1
 90
        0
176
     1
 90
        0
176
     1
 40
0.6
176
     1
 40
30.0
176
     1
 62
     7
420
 16777215
176
     1
 90
        1
176
     1
 90
        4
176
     1
 62
     7
176
     1
 62
   257
176
     1
 90
        1
176
     1
 90
        1
176
     1
 40
1.0
176
     1
 90
        0
176
     1
 62
   257
176
     1
 40
1.0
176
     1
 90
        1
176
     1
 90
        6
176
     1
 90
        2
176
     1
 62
     7
176
     1
 90
        3
176
     1
 90
        0
176
     1
 90
        0
176
     1
290
     0
176
     1
 90
        1
176
     1
 40
0.0
176
     1
 90
        0
176
     1
290
     0
176
     1
290
     1
176
     1
290
     1
176
     1
290
     0
176
     1
290
     0
176
     1
290
     0
176
     1
290
     0
176
     1
290
     0
176
     1
290
     0
176
     1
 90
       50
176
     1
 40
0.0
176
     1
 40
1.0
176
     1
 90
        0
176
     1
 62
    18
420
        0
176
     1
 90
       50
176
     1
 90
        3
176
     1
 62
     5
420
      255
176
     1
290
     0
176
     1
 90
       50
176
     1
 90
       50
176
     1
 90
       50
176
     1
290
     0
176
     1
 90
       50
176
     1
 62
   256
176
     0
 40
1.0
176
     0
 90
        2
176
     1
  1
strokes_ogs.tif
176
     1
290
     0
176
     1
 40
1.0
176
     1
 40
1.0
176
     1
  0
VISUALSTYLE
  5
40
102
{ACAD_REACTORS
330
2A
102
}
330
2A
100
AcDbVisualStyle
  2
X-Ray
 70
    25
177
     3
291
     0
 70
    58
 90
        2
176
     1
 90
        2
176
     1
 90
        1
176
     1
 90
        1
176
     1
 40
0.5
176
     1
 40
30.0
176
     1
 62
     7
420
 16777215
176
     1
 90
        1
176
     1
 90
        0
176
     1
 62
     7
176
     1
 62
   257
176
     1
 90
        1
176
     1
 90
        1
176
     1
 40
1.0
176
     1
 90
        8
176
     1
 62
     7
176
     1
 40
1.0
176
     1
 90
        1
176
     1
 90
        6
176
     1
 90
        2
176
     1
 62
     7
176
     1
 90
        3
176
     1
 90
        0
176
     1
 90
        0
176
     1
290
     0
176
     1
 90
       13
176
     1
 40
0.0
176
     1
 90
        0
176
     1
290
     0
176
     1
290
     1
176
     1
290
     1
176
     1
290
     0
176
     1
290
     0
176
     1
290
     0
176
     1
290
     0
176
     1
290
     0
176
     1
290
     0
176
     1
 90
       50
176
     1
 40
0.0
176
     1
 40
1.0
176
     1
 90
        0
176
     1
 62
    18
420
        0
176
     1
 90
       50
176
     1
 90
        3
176
     1
 62
     5
420
      255
176
     1
290
     0
176
     1
 90
       50
176
     1
 90
       50
176
     1
 90
       50
176
     1
290
     0
176
     1
 90
       50
176
     1
 62
   256
176
     0
 40
1.0
176
     0
 90
        2
176
     1
  1
strokes_ogs.tif
176
     1
290
     0
176
     1
 40
1.0
176
     1
 40
1.0
176
     1
  0
DICTIONARYVAR
  5
C2
102
{ACAD_REACTORS
330
C1
102
}
330
C1
100
DictionaryVariables
280
     0
  1
1:1
  0
DICTIONARYVAR
  5
CA
102
{ACAD_REACTORS
330
C1
102
}
330
C1
100
DictionaryVariables
280
     0
  1
3.500000
  0
DICTIONARYVAR
  5
CB
102
{ACAD_REACTORS
330
C1
102
}
330
C1
100
DictionaryVariables
280
     0
  1
acadiso.lin
  0
DICTIONARYVAR
  5
C7
102
{ACAD_REACTORS
330
C1
102
}
330
C1
100
DictionaryVariables
280
     0
  1
Standard
  0
DICTIONARYVAR
  5
C6
102
{ACAD_REACTORS
330
C1
102
}
330
C1
100
DictionaryVariables
280
     0
  1
Standard
  0
DICTIONARY
  5
C3
330
6A
100
AcDbDictionary
280
     1
281
     1
  3
ACAD_ROUNDTRIP_2008_TABLESTYLE_CELLSTYLEMAP
360
C4
  0
CELLSTYLEMAP
  5
C4
102
{ACAD_REACTORS
330
C3
102
}
330
C3
100
AcDbCellStyleMap
 90
        3
300
CELLSTYLE
  1
TABLEFORMAT_BEGIN
 90
        5
170
     1
 91
        0
 92
    32768
 62
   257
 93
        1
300
CONTENTFORMAT
  1
CONTENTFORMAT_BEGIN
 90
        0
 91
        0
 92
        4
 93
        0
300

 40
0.0
140
1.0
 94
        5
 62
     0
340
11
144
6.0
309
CONTENTFORMAT_END
171
     1
301
MARGIN
  1
CELLMARGIN_BEGIN
 40
1.5
 40
1.5
 40
1.5
 40
1.5
 40
1.5
 40
1.5
309
CELLMARGIN_END
 94
        6
 95
        1
302
GRIDFORMAT
  1
GRIDFORMAT_BEGIN
 90
        0
 91
        1
 62
     0
 92
       -2
340
14
 93
        0
 40
0.045
309
GRIDFORMAT_END
 95
        2
302
GRIDFORMAT
  1
GRIDFORMAT_BEGIN
 90
        0
 91
        1
 62
     0
 92
       -2
340
14
 93
        0
 40
0.045
309
GRIDFORMAT_END
 95
        4
302
GRIDFORMAT
  1
GRIDFORMAT_BEGIN
 90
        0
 91
        1
 62
     0
 92
       -2
340
14
 93
        0
 40
0.045
309
GRIDFORMAT_END
 95
        8
302
GRIDFORMAT
  1
GRIDFORMAT_BEGIN
 90
        0
 91
        1
 62
     0
 92
       -2
340
14
 93
        0
 40
0.045
309
GRIDFORMAT_END
 95
       16
302
GRIDFORMAT
  1
GRIDFORMAT_BEGIN
 90
        0
 91
        1
 62
     0
 92
       -2
340
14
 93
        0
 40
0.045
309
GRIDFORMAT_END
 95
       32
302
GRIDFORMAT
  1
GRIDFORMAT_BEGIN
 90
        0
 91
        1
 62
     0
 92
       -2
340
14
 93
        0
 40
0.045
309
GRIDFORMAT_END
309
TABLEFORMAT_END
  1
CELLSTYLE_BEGIN
 90
        1
 91
        1
300
_TITLE
309
CELLSTYLE_END
300
CELLSTYLE
  1
TABLEFORMAT_BEGIN
 90
        5
170
     1
 91
        0
 92
        0
 62
   257
 93
        1
300
CONTENTFORMAT
  1
CONTENTFORMAT_BEGIN
 90
        0
 91
        0
 92
        4
 93
        0
300

 40
0.0
140
1.0
 94
        5
 62
     0
340
11
144
4.5
309
CONTENTFORMAT_END
171
     1
301
MARGIN
  1
CELLMARGIN_BEGIN
 40
1.5
 40
1.5
 40
1.5
 40
1.5
 40
1.5
 40
1.5
309
CELLMARGIN_END
 94
        6
 95
        1
302
GRIDFORMAT
  1
GRIDFORMAT_BEGIN
 90
        0
 91
        1
 62
     0
 92
       -2
340
14
 93
        0
 40
0.045
309
GRIDFORMAT_END
 95
        2
302
GRIDFORMAT
  1
GRIDFORMAT_BEGIN
 90
        0
 91
        1
 62
     0
 92
       -2
340
14
 93
        0
 40
0.045
309
GRIDFORMAT_END
 95
        4
302
GRIDFORMAT
  1
GRIDFORMAT_BEGIN
 90
        0
 91
        1
 62
     0
 92
       -2
340
14
 93
        0
 40
0.045
309
GRIDFORMAT_END
 95
        8
302
GRIDFORMAT
  1
GRIDFORMAT_BEGIN
 90
        0
 91
        1
 62
     0
 92
       -2
340
14
 93
        0
 40
0.045
309
GRIDFORMAT_END
 95
       16
302
GRIDFORMAT
  1
GRIDFORMAT_BEGIN
 90
        0
 91
        1
 62
     0
 92
       -2
340
14
 93
        0
 40
0.045
309
GRIDFORMAT_END
 95
       32
302
GRIDFORMAT
  1
GRIDFORMAT_BEGIN
 90
        0
 91
        1
 62
     0
 92
       -2
340
14
 93
        0
 40
0.045
309
GRIDFORMAT_END
309
TABLEFORMAT_END
  1
CELLSTYLE_BEGIN
 90
        2
 91
        1
300
_HEADER
309
CELLSTYLE_END
300
CELLSTYLE
  1
TABLEFORMAT_BEGIN
 90
        5
170
     1
 91
        0
 92
        0
 62
   257
 93
        1
300
CONTENTFORMAT
  1
CONTENTFORMAT_BEGIN
 90
        0
 91
        0
 92
        4
 93
        0
300

 40
0.0
140
1.0
 94
        2
 62
     0
340
11
144
4.5
309
CONTENTFORMAT_END
171
     1
301
MARGIN
  1
CELLMARGIN_BEGIN
 40
1.5
 40
1.5
 40
1.5
 40
1.5
 40
1.5
 40
1.5
309
CELLMARGIN_END
 94
        6
 95
        1
302
GRIDFORMAT
  1
GRIDFORMAT_BEGIN
 90
        0
 91
        1
 62
     0
 92
       -2
340
14
 93
        0
 40
0.045
309
GRIDFORMAT_END
 95
        2
302
GRIDFORMAT
  1
GRIDFORMAT_BEGIN
 90
        0
 91
        1
 62
     0
 92
       -2
340
14
 93
        0
 40
0.045
309
GRIDFORMAT_END
 95
        4
302
GRIDFORMAT
  1
GRIDFORMAT_BEGIN
 90
        0
 91
        1
 62
     0
 92
       -2
340
14
 93
        0
 40
0.045
309
GRIDFORMAT_END
 95
        8
302
GRIDFORMAT
  1
GRIDFORMAT_BEGIN
 90
        0
 91
        1
 62
     0
 92
       -2
340
14
 93
        0
 40
0.045
309
GRIDFORMAT_END
 95
       16
302
GRIDFORMAT
  1
GRIDFORMAT_BEGIN
 90
        0
 91
        1
 62
     0
 92
       -2
340
14
 93
        0
 40
0.045
309
GRIDFORMAT_END
 95
       32
302
GRIDFORMAT
  1
GRIDFORMAT_BEGIN
 90
        0
 91
        1
 62
     0
 92
       -2
340
14
 93
        0
 40
0.045
309
GRIDFORMAT_END
309
TABLEFORMAT_END
  1
CELLSTYLE_BEGIN
 90
        3
 91
        2
300
_DATA
309
CELLSTYLE_END
  0
ENDSEC
  0
EOF
